This file was generated by Ched 2.6.4.0.
#TITLE ""
#ARTIST ""
#DESIGNER ""
#DIFFICULTY 0
#PLAYLEVEL
#SONGID ""
#WAVE ""
#WAVEOFFSET 0
#JACKET ""
#REQUEST "ticks_per_beat 480"
#00002: 4
#BPM01: 145
#00008: 01
#TIL00: ""
#HISPEED 00
#MEASUREHS 00
#00612:1414
#00718:14
#00714:0014
#0131a:1414
#01310:41
#0171a:14
#01714:0014
#01612:1414
#01618:00140000
#01512:1414
#0211a:14
#02112:0014
#02110:41
#0231a:0014
#02312:14
#03218:1414
#03214:00140014
#03014:1414
#03018:00140014
#03418:14
#03412:0014
#0341a:0014
#03414:00140000
#06616:00000014
#06614:14
#06618:00140000
#06612:0014
#06514:14
#06512:0014
#0651a:00000014
#06518:00140000
#00314:1414
#0051a:1414
#00510:41
#00118:1414
#00818:14
#00813:0014
#00819:0014
#01014:14
#01018:0014
#01218:14
#01214:0014
#0141a:1414
#01414:00140000
#01912:14
#01918:0014
#02218:14
#02214:00140000
#0221a:0014
#02414:14
#02418:00140000
#02412:0014
#0281a:14
#02814:00140000
#02818:0014
#02812:00000014
#02612:14
#0261a:00140000
#02619:0014
#02613:0014
#0351a:14
#03512:00140000
#03518:0014
#03514:00000014
#03714:00140000
#03718:0014
#03712:00000014
#0371a:24
#0371f:21
#0381a:14001414
#03814:00140000
#03810:41
#03912:14
#03918:00140000
#03914:0014
#0391a:00000014
#04312:14
#0431a:00140000
#04314:0014
#04318:00000014
#04112:00140000
#04118:0014
#04114:00000014
#0411a:24
#00918:0000001400000000
#0091a:14343400
#01114:0000001400000000
#01112:14343400
#05212:0000000024000016
#05218:00000016
#0521a:24
#05216:00240000
#05312:00162600
#05318:2600001600001400
#0541a:14
#05418:0000140000000016
#05412:00000016
#05518:00162600
#05512:2600001600000000
#05514:00000014
#05918:2600001600001400
#05912:00162600
#05612:1400000000000016
#05618:00000016
#05614:00140000
#05712:00162600
#05718:2600001600001400
#05818:00000016
#05812:1400000000000016
#0581a:00140000
#05814:0014
#0611a:00000014
#06112:14
#06114:0014
#06118:00140000
#06212:14
#06218:00140000
#06214:0014
#0621a:00000014
#0251a:14
#02512:00140000
#02519:0014
#02513:0014
#0271a:14
#02712:00140000
#02718:0014
#02714:00000014
#0361a:14
#03612:00140000
#03618:0014
#04514:24140000
#0451a:0014
#04512:00000014
#04618:14
#04614:00140000
#0461a:0014
#04612:00000014
#04718:14140000
#04712:0014
#0471a:00000014
#05118:14140000
#05112:00001414
#04914:24140000
#0491a:00001414
#04910:41
#0641a:00000014
#06412:14
#06413:00140000
#06312:14
#06314:0014
#06313:00140014
#0671a:14
#06718:0014
#06719:00140014
#0681a:14
#06819:00140000
#05012:14
#05014:00343400
#0421a:14
#04218:00343400
#04012:14001414
#04018:00140000
#04814:14
#04818:00140000
#04812:0014
#0481a:00000014
#0291f:11
#04412:24
#04416:00240000
#0441a:0024
#0601a:24242400
#06012:24242400
#06010:41
#0095a:64
#00958:0000002400000000
#01154:0000002400000000
#01152:54
#0445a:0014
#05358:00000054
#05458:00540000
#0545a:64
#05554:00000064
#05652:54
#05654:00640000
#03152:0014
#0295a:0014
#03352:0014
#0335a:0014
#06052:0014
#0605a:0014
#06858:0014
#0685a:24
#06859:00640000
#06352:24
#06354:0024
#06353:00540054
#06452:24
#06453:00540000
#0675a:24
#06758:0024
#06759:00640064
#05052:54
#0425a:54
#002380:14342400
#004340:14342400
#0093a0:14343424
#009380:0000005400000000
#011320:14343424
#011340:0000005400000000
#018380:14
#018390:00340000
#0183a0:0024
#020340:14
#020320:0024
#0293a0:14000034000034002400000000000000
#031320:14000034000034002400000000000000
#033320:14000034000034002400000000000000
#0333a1:14000034000034002400000000000000
#0423a1:14
#042381:00343424
#050321:14
#050341:00343424
#053381:00000014
#0543a1:3424
#054381:00340000
#055341:00000014
#056321:3424
#056341:00340000
#063321:14
#063331:00340034
#063341:0034
#064321:34
#064331:00340000
#064341:0024
#0673a1:14
#067391:00340034
#067381:0034
#0683a1:34
#068391:00340000
#068381:0024
