This file was generated by Ched 2.7.0.0.
#TITLE ""
#ARTIST ""
#DESIGNER ""
#DIFFICULTY 0
#PLAYLEVEL
#SONGID ""
#WAVE ""
#WAVEOFFSET 0
#JACKET ""
#REQUEST "ticks_per_beat 480"
#00002: 4
#BPM01: 128
#00008: 01
#TIL00: ""
#HISPEED 00
#MEASUREHS 00
#0011a:14
#00214:14
#0031a:14
#00414:14
#00518:14
#00612:14
#00718:14
#00812:14
#00919:14
#00910:41
#01019:14
#01113:14
#01213:14
#01318:14
#01418:14
#01514:14
#01614:14
#01712:0016
#01718:26
#01710:41
#01818:16
#01918:0016
#01912:26
#02012:16
#02112:0016
#02118:26
#02218:1616
#02318:0016
#02312:26
#02412:1616
#03318:2616
#03418:16
#03512:2616
#03510:41
#03612:16
#03712:0016
#03718:26
#03918:0016
#03912:26
#04119:14
#0411f:11
#04213:14
#0431a:14
#0441a:14
#04514:14
#04614:14
#04912:0016
#04918:26
#0491f:21
#04910:0041
#05018:16
#05118:0016
#05112:26
#05212:16
#05312:0016
#05318:26
#05418:1616
#05518:0016
#05512:26
#05612:1616
#0571a:14
#05814:14
#05918:14
#06012:14
#0651a:14
#06510:41
#0661a:14
#06714:14
#06814:14
#06918:14
#07018:14
#07112:14
#07212:14
#02510:41
#0253a0:14
#0263a0:24
#027340:14
#028340:24
#029380:14
#030380:24
#031320:14
#032320:24
#038380:1626
#040320:1626
#047380:1400000034343424
#061380:14
#0623a0:24
#063340:14
#064320:24
#073380:14
#074380:24
#075340:14
#076340:24
#077390:14
#081390:00240000
