This file was generated by Ched 2.7.0.0.
#TITLE ""
#ARTIST ""
#DESIGNER ""
#DIFFICULTY 0
#PLAYLEVEL
#SONGID ""
#WAVE ""
#WAVEOFFSET 0
#JACKET ""
#REQUEST "ticks_per_beat 480"
#00002: 4
#BPM01: 128
#00008: 01
#TIL00: ""
#HISPEED 00
#MEASUREHS 00
#00012:0000000000130000
#00015:00000013
#00018:0000000000000013
#0011b:1313
#00118:00130013
#00115:1313
#00212:1300001300000000
#00215:00000013000000000000000000001300
#00218:1300001300001300
#0021b:00000013000000000000130000000000
#0051b:13000013
#00518:00131300
#00515:13000013
#00512:00130000
#00618:0000001300001300
#00615:1300001300000013
#00612:00000013000000000000000000000000
#0061b:00000013000000000000130000000000
#00918:1212
#00916:00120012
#00912:1212
#0091c:00120012
#00910:41
#0101c:12
#0101a:0012000000000000
#01018:00120000
#01016:0000001200000000
#01014:00001212
#01315:00130000
#01318:1313
#0131b:00000013
#01312:1313
#01412:1300000013131300
#01415:00130000
#01418:1333003300001300
#0141b:00130000
#01718:13131313
#01715:00130013
#0171b:0013001300130013
#01712:2323
#01710:41
#01815:00000013000000000000000013000000
#01818:0000001300000013
#01812:1300000000130000
#0181b:00000013000000000000000000000000
#02118:0000130000000013
#02115:0000001300001300
#0211b:2300001323000000
#02112:2300000023000013
#02518:13131313
#0251b:0000000000130013
#02512:13130000
#02515:0000001300000000
#02510:41
#0261b:00130023
#02615:00130000
#02612:0013
#02614:0000000000130000
#02616:00000013
#02617:0023
#02619:0000000000230000
#02718:1313000000130013
#02715:0000131300000000
#0271b:00131313
#02712:13
#0281b:00131300
#02819:0000000000130000
#02817:00000013
#02816:0023
#02814:0000000000230000
#02812:00000023
#03419:00000013000000000000000000000000
#0341b:0000001300130000
#03412:1300000000130000
#03415:00000013
#03418:0000000000000013
#03414:00000013000000000000000000000000
#03416:0000001300000000
#03218:0000000000131313
#03215:00000000000000000000001300130000
#03212:00131300
#0321b:0013
#0361b:0000001300130000
#03618:00000013
#03615:0000000000000013
#03617:13
#03619:00000013000000000000000000000000
#03614:00000013000000000000000000000000
#03616:0000001300000000
#04112:12
#0411c:12
#04116:00120012
#0411a:0012
#04118:0000000000120000
#0411f:11
#0421a:0000120000120000
#04212:0012
#04214:0000000000120000
#04216:00000012
#04218:0012
#0421c:00000012
#04317:13
#0431b:0000130013000013
#04318:0000000000130000
#04315:00000013
#04312:1300000013000013
#04314:0013000000000000
#04316:00130000
#0441b:0000000013130000
#04418:00000013
#04412:0013130000000000
#04415:0000001313130013
#0451b:0000000000130000
#04517:0000000000000013
#04519:00000013
#04512:2313000000000013
#04515:0000131313000000
#04618:00130000
#04617:0013
#04619:0000000000130000
#0461b:00000013
#04615:0013001300000000
#04612:0000000013000013
#04614:0000000000130000
#04717:13001313
#0471b:0000130000130013
#04712:1300000023002323
#04716:00130000
#04812:0000000000130000
#04815:00000013
#04818:0000000000000013
#0491b:23130013
#04912:1313
#04919:0000001300000013
#04917:0023
#0491f:21
#04910:0041
#05017:13
#05018:00000013000000000000000013000000
#05015:0000001300000013
#0501b:0000000000130000
#05012:13
#05318:00132313
#05312:1313
#05315:0013000000130000
#0531b:2300001300000013
#05418:13000013
#05412:1300001300000000
#0541b:00000013000000000000130000000000
#05415:0000000000000013
#05716:13
#05718:00000013130000001313000000002300
#05715:00000000000013000000000000000013
#05712:00131313
#0571b:00000013
#05815:00001300000000001300001313000000
#05812:00000000131300000000000000000000
#05818:0000230000000013
#0581b:23001313
#05912:13130000000000000000130000000000
#05915:00000000130000130000000013130000
#05918:1300001313000000
#0591b:0000130000131300
#06118:0000000013131313
#06116:0000001300000000
#06115:23
#0611b:00000000333300000000000000000000
#06215:1313131300000013
#06218:0013
#0621b:0000000000000013
#06212:0013
#06318:1313000000000000
#06315:00130000000000000000000000000000
#06312:00000000130000000000001300000000
#06317:00000000001300000000000000000000
#06314:0000001300000000
#06319:00000000000000130000000000000000
#06316:0013
#0631b:00000000000000000013000000001300
#06418:13001300000000000000001300000000
#06415:0000131313001300
#06412:00130000000000000000000000001300
#0641b:00000000001300130000000000001300
#06512:00130013000000000000000000001300
#06518:2313130000000013
#06515:0000001323131300
#0651b:00000000000013000013001300000000
#06510:41
#06618:2313130000130000
#06615:00000000000013000000001300000000
#0661b:0000001300000013
#06612:00130013000000001300000000000000
#06718:13000000130013000000001300000000
#0671b:0013000013000000
#06712:0013000013000013
#06715:00000000001300000000130000000000
#06817:1313
#0681b:0013000000130000
#06816:00130013
#06812:0000001300000013
#0691b:1300130023000013
#06918:0013001300000000
#06916:00000000000000000013000000000000
#06919:0000000000130000
#06914:00000000000000000000001300000000
#06917:00000013
#06912:0000000000000013
#06915:13
#07018:1313000000000000
#07015:0000131300000000
#0701b:00000000000000000013000000001300
#07019:00000000000000000000001300000000
#07012:0000000000001313
#07014:0000000000130000
#07016:0023
#07118:13001300001300002300130013000000
#07115:00130000130013000013001300000000
#0711b:0000001300000013
#07112:0013000000000013
#07218:13000000001300001300000000000000
#0721b:0013001300000000
#07215:00130000130000001300130000000000
#07212:0013001300000000
#07318:13000000000013000014002400000000
#07315:0013130000000000
#07314:0000000014140000
#0731b:0000130000000013
#07312:1300000000000013
#07418:1300130013130000
#0741b:0013001300001300
#07412:13330033000000001300000000000000
#07415:0013001300001313
#07518:13001300001300000000130000001300
#07515:0000131313001300
#07512:1300000000130000
#0751b:00000000000000001333003300000000
#07618:1313000000001313
#07615:00000000130013000013001300000000
#0761b:0000000013130000
#07612:00000000000000000000000000130013
#00312:1313
#00315:00130013
#00318:1313
#0041b:1300001300000000
#00418:00000013000000000000000000001300
#00415:1300001300001300
#00412:00000013000000000000130000000000
#00712:13000013
#00715:00131300
#00718:13000013
#0071b:00130000
#00818:1300001300000013
#0081b:00000013000000000000000000000000
#00812:00000013000000000000130000001300
#00815:0000001300001300
#01116:1212
#01118:00120012
#0111c:1212
#01112:00120012
#01212:12
#01214:0012000000000000
#01216:00120000
#01218:0000001200000000
#0121a:00001212
#01518:00130000
#01515:1313
#01512:00000013
#0151b:1313
#0161b:1300000013230000
#01618:00130023
#01615:1333003300000023
#01612:00130000
#01915:13131313
#01918:00130013
#01912:0013001300130013
#0191b:2323
#02018:00000013000000000000000013000000
#02015:0000001300000013
#0201b:1300000000130000
#02012:00000013000000000000000000000000
#0221b:1300001300000000
#02218:00000013000000000000000000001300
#02212:00000013000000000000130000000000
#02215:13000013
#02418:13000013
#02415:00000013000000000000000000001300
#02412:1300001300000000
#0241b:00000013000000000000130000000000
#02915:13131313
#02912:0000000000130013
#0291b:13130000
#02918:0000001300000000
#03012:00130013
#03018:00130000
#03016:0013
#03014:0000000000130000
#0301b:0023
#03019:0000000000230000
#03017:00000023
#03115:1313000000130013
#03118:0000131300000000
#03112:00131313
#0311b:13
#03312:1313
#03315:0013000000130000
#03318:00132313
#0331b:2300001300000013
#03518:1313
#0351b:0013000000130000
#03512:23132313
#03515:0000001300000013
#03510:41
#03814:00000013000000000000000000000000
#03812:0000001300130000
#0381b:1300000000130000
#03818:00000013
#03815:0000000000000013
#03819:00000013000000000000000000000000
#03817:0000001300000000
#0371b:1313
#03718:0013000000130000
#03715:00132313
#03712:2300001300000013
#03915:1313
#03912:0013000000130000
#0391b:23132313
#03918:0000001300000013
#04016:13
#04014:00000013000000000000000000000000
#04012:0000001300130000
#04019:00000013000000000000000000000000
#04017:0000001300000000
#04015:00000013
#04018:0000000000000013
#05112:23130013
#0511b:1313
#05114:0000001300000013
#05116:0023
#05216:13
#05215:00000013000000000000000023000000
#05218:0000001300000023
#0521b:13
#05212:0000000000230000
#05515:00132313
#0551b:1313
#05518:0013000000130000
#05512:2300001300000013
#05615:13
#0561b:13000000000013000000000000000013
#05612:00000013000000000000130013000000
#05614:0000000000000013
#05617:00000000000000000000001300000000
#05619:00000000000000000000000000130000
#06018:13000000000013000000000000000013
#0601b:00000013130000001313000013000000
#06015:0000130013000013
#06012:13000013
#07816:00170000000000000000001700001700
#07815:00000000190000190000000000000000
#07916:00001700000017000017000017000000
#07917:00000000000000000000000000000015
#08017:00001500001500001500000000000000
#02315:0000130000000013
#02318:0000001300001300
#02312:2300001323000000
#0231b:2300000023000013
#00155:5353
#00252:5300005300000000
#00255:00000053000000000000000000000000
#0045b:6300006300000000
#00458:00000063000000000000000000000000
#00358:6363
#00555:53
#00552:00530000
#0055b:00000063
#00558:0063
#00655:6300006300000000
#00652:00000063000000000000000000000000
#0075b:00630000
#00758:63
#00752:00000053
#00755:0053
#00858:5300005300000000
#0085b:00000053000000000000000000000000
#01358:53
#01352:0053
#01355:00130000
#0135b:00000013
#01458:53
#0145b:00230000
#01452:00000013
#01558:00130000
#01552:00000013
#0155b:0063
#01555:63
#01655:63
#01652:00230000
#01752:1313
#01758:53535353
#0175b:0023002300230023
#01852:53
#01855:00000053000000000000000000000000
#01858:0000005300000000
#01955:63636363
#01952:0023002300230023
#0195b:1313
#02058:00000063000000000000000000000000
#02055:0000006300000000
#0205b:63
#02152:1313
#0215b:1313
#0225b:5300005300000000
#02258:00000053000000000000000000000000
#02252:00000053000000000000000000000000
#02255:63
#0235b:1313
#02352:1313
#0255b:0000000000000013
#02952:0000000000000013
#03352:5353
#03355:0023000000230000
#0335b:1300002300000023
#03358:00531353
#03558:5353
#0355b:0023000000230000
#03552:13531353
#03555:0000002300000023
#0375b:6363
#03758:0023000000230000
#03755:00631363
#03752:1300002300000023
#03955:6363
#03952:0023000000230000
#0395b:13631363
#03958:0000002300000023
#0435b:0000000000000053
#0495b:13
#04952:5353
#04957:0013
#05052:53
#05058:00000053000000000000000000000000
#05055:0000005300000000
#05255:00000063000000000000000000000000
#05258:0000006300000000
#0525b:63
#0515b:6363
#05152:13
#05156:0013
#0535b:13
#05352:5353
#05355:0023000000230000
#05358:0013
#05452:5300005300000000
#0545b:00000053000000000000000000000000
#0565b:6300006300000000
#05652:00000063000000000000000000000000
#0555b:6363
#05558:0023000000230000
#05552:13
#05555:0013
#06155:53
#0635b:00000000000000000053000000000000
#06352:00000000000000000000005300000000
#06455:0013
#06558:00530000
#0655b:0000005300000000
#06555:00000063
#06552:0000000000000063
#06658:00530000
#0665b:0000005300000000
#06655:00000000000000000000005300000000
#06652:0000000000000013
#06758:00000000000000000000005300000000
#0675b:0000000000000013
#07358:13
#07355:00130000
#07258:0053
#07255:0000000000530000
#07452:5313
#0745b:00000013
#07455:0023000000000000
#07552:13
#0755b:0063
#07558:0000000000230000
#01054:00000012
#0125a:00000012
#07856:00570000000000000000005700005700
#07855:00000000590000590000000000000000
#07956:00005700000057000057000057000000
#07957:00000000000000000000000000000055
#08057:00005500005500005500000000000000
#02452:6300006300000000
#02455:00000063000000000000000000000000
#0245b:00000063000000000000000000000000
#02458:53
#001350:13
#001320:00230000
#001350:0013
#001320:00000023
#002320:1300003300000000
#002350:00000033000000000000230000000000
#003380:13
#0033b0:00230000
#003380:0013
#0033b0:00000023
#0043b0:1300003300000000
#004380:00000033000000000000230000000000
#005350:1323
#005320:00330000
#005381:0013
#0053b1:00000033
#006381:23
#006350:1300003300000000
#006320:00000033000000000000230000000000
#007380:1323
#0073b0:00330000
#007351:0013
#007321:00000033
#008351:23
#008380:1300003300000000
#0083b0:00000033000000000000230000000000
#0103a0:00001222
#012340:00001222
#013380:13
#0133b0:00230000
#013320:0013
#013350:00000023
#014380:1333003323000000
#0143b0:00330000
#015350:13
#015320:00230000
#0153b0:0013
#015380:00000023
#016350:1333003323000000
#016320:00330000
#017380:13333333
#0173b0:0053005300530053
#018380:23
#018321:1300002300000000
#018351:00000033000000000000000000000000
#018380:0000001300000000
#0183b0:0000000000230000
#019350:13333333
#019320:0053005300530053
#020350:23
#0203b1:1300002300000000
#020381:00000033000000000000000000000000
#020350:0000001300000000
#020320:0000000000230000
#022350:1300002300000000
#022320:00000033000000000000000000000000
#0223b1:1300003300000000
#022381:00000033000000000000230000000000
#024381:1300002300000000
#0243b1:00000033000000000000000000000000
#024320:1300003300000000
#024350:00000033000000000000230000000000
#025320:00001333
#025350:0000000000330023
#027350:00001333
#027320:0000000000330033
#028350:00230000
#0293b0:00001333
#029380:0000000000330023
#031380:00001333
#0313b0:0000000000330033
#032380:00230000
#033320:13230000
#033350:0053000000000000
#033381:00132300
#0333b1:0000005300000000
#033320:00001323
#033350:0000000000530000
#033381:00000013
#0333b1:0000000000000053
#034381:23
#035381:13230000
#0353b1:0053000000000000
#035320:00132300
#035350:0000005300000000
#035381:00001323
#0353b1:0000000000530000
#035320:00000013
#035350:0000000000000053
#036320:23
#0373b0:13230000
#037380:0053000000000000
#037351:00132300
#037321:0000005300000000
#0373b0:00001323
#037380:0000000000530000
#037351:00000013
#037321:0000000000000053
#038351:23
#039351:13230000
#039321:0053000000000000
#0393b0:00132300
#039380:0000005300000000
#039351:00001323
#039321:0000000000530000
#0393b0:00000013
#039380:0000000000000053
#0403b0:23
#041340:0000000000000012
#042340:00220000
#0433b0:0000000000000013
#044380:00230000
#045380:1323
#0453b0:00330000
#049320:13
#049360:00230000
#049320:0013
#049360:00000023
#050320:13
#050350:00000023000000000000000000000000
#050381:00000013000000000000000000000000
#0503b1:0000002300000000
#050350:0000001300000000
#050320:0000000000230000
#0513b0:13
#051370:00230000
#0513b0:0013
#051370:00000023
#0523b0:13
#052380:00000023000000000000000000000000
#052351:00000013000000000000000000000000
#052321:0000002300000000
#052380:0000001300000000
#0523b0:0000000000230000
#053320:13230000
#053350:0053000000000000
#053320:00001323
#053350:0000000000530000
#054320:13
#054360:00000023000000000000000000000000
#0543b1:00000013000000000000000000000000
#054371:0000002300000000
#054320:0000001300000000
#054360:0000000000230000
#0553b0:13230000
#055380:0053000000000000
#0553b0:00001323
#055380:0000000000530000
#0563b0:13
#056370:00000023000000000000000000000000
#056321:00000013000000000000000000000000
#056361:0000002300000000
#0563b0:0000001300000000
#056370:0000000000230000
#061350:13
#061320:00000023000000000000000000000000
#061371:00000013000000000000000000000000
#0613b1:00000000333323000000000000000000
#061321:0000000013230000
#061351:0000000000001323
#0623b1:1323000000000000
#062381:0000132300000000
#0633b1:00000000000000000013000000000000
#063381:00000000000000000000002300000000
#063320:00000000000000000000001300000000
#063350:0000000000000023
#065380:00132300
#0653b0:0000003300000000
#065350:00000013
#065320:0000000000000033
#066350:23
#066380:00132300
#0663b0:0000003300000000
#066350:00000000000000000000001300000000
#066320:0000000000000023
#067380:00000000000000000000001300000000
#0673b0:0000000000000023
#068320:13
#068360:0023000000000000
#0683b0:00130000
#068370:0000002300000000
#068320:0013
#068360:0000000000230000
#0683b0:00000013
#068370:0000000000000023
#069320:0000000013535353535353532300000000000000000000000000000000000000
#069330:00000000000000000053005300530053005300530053005300000000000000000000000000000000000000000000000000000000000000000000000000000000
#070320:1323000000000000
#0703b0:0000132300000000
#072380:0013
#0723b0:0000000000000023
#072351:0000000000130000
#072321:0000000000000023
#074321:13330033230000000000000000000000
#074351:0033000000000000
#0753b1:00000000000000001333003323000000
#075381:0000000000330000
#076321:13
#076351:0023000000000000
#0763b1:00130000
#076381:0000002300000000
#077381:13000000000000000000000000000053005300000000005300530000000000530053000000000000000000530053000053000000000000530053000000000000
#077371:00550000
#077361:00000000000057000000005700005700
#077351:0059
#078381:53000053000053000000530000530000
#078361:00570000000000000000005700005700
#078351:00000000590000590000000000000000
#079381:00530000005300005300005300005300
#079361:00005700000057000057000057000000
#079371:00000000000000000000000000000055
#080381:00530000530000530000000000000000
#080371:00005500005500005500000000000000
#081381:00230000
