This file was generated by Ched 2.7.0.0.
#TITLE ""
#ARTIST ""
#DESIGNER ""
#DIFFICULTY 0
#PLAYLEVEL
#SONGID ""
#WAVE ""
#WAVEOFFSET 0
#JACKET ""
#REQUEST "ticks_per_beat 480"
#00002: 4
#BPM01: 128
#00008: 01
#TIL00: ""
#HISPEED 00
#MEASUREHS 00
#00012:0000000000130000
#00015:00000013
#00018:0000000000000013
#00218:1300001300001300
#0021b:00000013000000000000000000000000
#00215:0000000000000013
#00615:00000013
#00618:00000013000000000000000000001300
#0061b:1300001300000000
#01814:1400001400000000
#01818:00000014000000000000000013000000
#01815:0000000000000013
#02118:00130013
#02112:2323
#0211b:2323
#02518:0000130000130000
#0251b:1300000000000013
#02512:00131300
#02515:13000013
#02510:41
#0261b:00130000
#02615:00130000
#02612:0024
#02616:0000000000240000
#0261a:00000024
#02718:13
#02715:00130000
#02712:13
#0271b:00130000
#03418:00000013000000000000000000001300
#03415:0000001300001300
#03412:0000000000130000
#03212:0000000000130000
#03215:00000013
#03218:0000000000000013
#04116:1200120000120000
#0411a:0012
#04118:00000012
#0411f:11
#04219:00001212
#04215:0000000000120000
#04318:1300000000130000
#0431b:00131300
#04312:1300000013000013
#04315:00130013
#0441b:0013
#04418:0000000000130000
#04415:00000013
#04715:1300000000130000
#04712:0000130000002323
#04718:0000130000001313
#0471b:1323
#04812:0000000000130000
#04815:00000013
#04818:0000000000000013
#04915:0000130000000013
#04918:0000001300001300
#0491b:23
#04912:0023
#0491f:21
#04910:0041
#05018:1300001300001300
#05015:0000000000000013
#0501b:00000013000000000000000000000000
#05712:13000013
#05718:00000013000013000013000000002300
#05715:00000000130000001300000000000013
#05815:00001300000000000000001300001300
#05812:00000000001300000000000000000000
#0581b:00001313
#05818:23230000
#05912:00130000000000000000000013000000
#05918:13000000130000130000000000130000
#0591b:0000000000130000
#05915:0000001313000000
#0621b:1313
#06215:0013000013000000
#06218:00130000
#06212:0000001300000013
#06318:13001300000000000013000000001300
#06315:00130000000000001300000000000000
#06312:0000130000000013
#0631b:0000001300000000
#0641b:13
#06418:0000131313000000
#06415:00001300001300130000000000000000
#06512:00130013000000000000000000000000
#06518:23001300130000000033333300001300
#06515:0000001300000000
#06510:41
#06615:00333333000013000000130000000000
#06618:00000000000000001300001300000000
#06715:13000000000000001300001300000000
#06718:0013001300130000
#0671b:00130000
#0691b:1300000023131300
#06918:0013001300000000
#06915:13000000130000000013001300000000
#07118:13001300001300000033333300000000
#07115:00130000130013000000000000000000
#07215:00000000001300000000130000000000
#07212:1313000000000000
#07218:00130000000000000000000000000000
#0721b:0000131300000000
#0731b:1300000000000013
#07315:0013000000000000
#07318:0000130014140000
#07312:0000001300000013
#07314:00000000000000000014002400000000
#07412:0013
#07418:13330033000000000000130000000000
#0741b:0013000000001300
#07415:0000001300000013
#07518:0013001300000000
#0751b:00130000
#07515:00000000001300001333003300001300
#07512:1300000000130000
#0761b:0000000013130000
#07615:00000000000000000013000000000000
#07618:0000000000001313
#07612:00000000000000000000000000130000
#0011b:13
#00115:0013
#00415:1300001300001300
#00418:0000000000000013
#00412:00000013000000000000000000000000
#0051b:13
#00515:0013
#01312:0013
#01318:13
#01418:1333003300000000
#0141b:00130000
#01412:00000013
#01715:00130013
#0171b:00130013
#01712:2323
#01710:41
#0221b:13
#02218:00000013000000000000000013000000
#02212:00000013000000000000130000000000
#02215:1300000000000013
#02415:00000013000000000000000013000000
#02418:1300000000000013
#02412:1300000000130000
#0241b:00000013000000000000000000000000
#03315:00130000
#03318:00000013
#0331b:23
#03312:0023
#03615:00000013000000000000000000001300
#03612:0000001300000000
#0361b:0000000000130000
#03618:00000013
#04012:0000000000130000
#04015:00000013
#04018:00000013000000000000000000001300
#0401b:0000001300000000
#05118:0000130000000013
#05115:0000001300001300
#05112:23
#0511b:0023
#05618:1300001300001300
#05615:0000000000000013
#0561b:00000013000000000000000000000000
#0601b:00000013000000000013000000000000
#06018:0000001300000013
#06015:00000000130000001300000000000013
#06012:13000013
#07813:00170000000000000000001700001700
#07812:00000000190000190000000000000000
#07913:00001700000017000017000017000000
#07914:00000000000000000000000000000015
#08014:00001500001500001500000000000000
#00312:13
#00318:0013
#00712:13
#00718:0013
#00812:1300001300000000
#00815:00000013000000000000000000000000
#00912:1313
#00918:00130013
#00910:41
#0101b:13
#01018:0013000000000000
#01015:00130000
#01012:0000001300000000
#0111b:1313
#01115:00130013
#01212:13
#01215:0013000000000000
#01218:00130000
#0121b:0000001300000000
#0151b:0013
#01515:13
#01615:1333003300002300
#01612:00130000
#0161b:0000000000230000
#01618:0000000000000023
#02018:1400001400000013
#02015:00000013
#02014:00000014000000000000000000000000
#01918:00130013
#01912:00130013
#0191b:2323
#02315:00130013
#0231b:2323
#02312:2323
#02815:00130000
#0281b:00130000
#02812:00000024
#02816:0000000000240000
#0281a:0024
#02915:0000130000130000
#02912:1300000000000013
#0291b:00131300
#02918:13000013
#03012:00130024
#03018:00130000
#0301a:0024
#03016:0000000000240000
#03115:13
#03118:00130000
#0311b:13
#03112:00130000
#03512:00130000
#0351b:23000013
#03515:0023
#03510:41
#03815:00000013000000000000000000001300
#03818:0000001300001300
#0381b:0000000000130000
#03718:00130000
#03715:00000013
#03712:23
#0371b:0023
#0391b:00130000
#03912:23000013
#03918:0023
#04512:00131300
#04515:2300000000130000
#0451b:2300000013000013
#04518:00130013
#04612:0013
#04615:0000000000130000
#04618:00000013
#05212:1300001300000000
#05215:00000013000000000000000000002300
#05218:00000023
#0531b:00130000
#05312:23000013
#05315:0000001300000000
#05318:0000000023000013
#05418:00000013
#05415:1300001300000013
#05412:00000013000000000000000000000000
#05512:00130000
#0551b:23000013
#05518:0000001300000000
#05515:0000000023000013
#07012:1300000023131300
#07015:0013001300000000
#07018:13000000130000000013001300000000
#06118:23
#06112:00000000333300000000000000000000
#0015b:53
#00155:0053
#00258:5300005300000000
#0025b:00000053000000000000000000000000
#0055b:53
#00555:0053
#0065b:6300006300000000
#00658:00000063000000000000000000000000
#01358:53
#01352:0053
#0135b:00130000
#01355:00000013
#01458:53
#0145b:00230000
#01452:00000013
#01752:1313
#01854:0000005400000000
#02152:1313
#0215b:1313
#0225b:53
#02258:00000053000000000000000000000000
#02252:00000053000000000000000000000000
#02255:63
#0335b:13
#03355:00530000
#03358:00000053
#03352:0013
#04352:0000000000000063
#0495b:13
#04952:0013
#05152:13
#0515b:0013
#06358:00000000000000000053000000000000
#06458:0013
#06658:00000000000000000000006300000000
#0665b:0000000000000013
#0735b:13
#07358:00130000
#07255:0000000000630000
#07452:0013
#0745b:0023000000001300
#07458:53
#07552:1300000000230000
#07555:0063
#07853:00570000000000000000005700005700
#07852:00000000590000590000000000000000
#07953:00005700000057000057000057000000
#07954:00000000000000000000000000000055
#08054:00005500005500005500000000000000
#00455:6300006300000000
#00452:00000063000000000000000000000000
#00352:63
#00358:0063
#00752:63
#00758:0063
#00852:5300005300000000
#00855:00000053000000000000000000000000
#01058:00000013
#01255:00000013
#0155b:0063
#01555:63
#01552:00130000
#01558:00000013
#01655:63
#01652:00230000
#02058:0000006400000000
#0195b:1313
#02452:63
#02455:00000063000000000000000000000000
#0245b:00000063000000000000000000000000
#02458:53
#0235b:1313
#02352:1313
#0255b:0000000000000013
#02952:0000000000000013
#03552:00530000
#0355b:13000053
#03555:0013
#03758:00630000
#03755:00000063
#03752:13
#0375b:0013
#0395b:00630000
#03952:13000063
#03958:0013
#0455b:0000000000000053
#05058:5300005300000000
#0505b:00000053000000000000000000000000
#05252:5300005300000000
#05255:00000053000000000000000000000000
#05658:5300005300000000
#0565b:00000053000000000000000000000000
#05352:13
#05358:0013
#0555b:13
#05555:0013
#06755:00000000000000000000005300000000
#06752:0000000000000013
#05455:6300006300000000
#05452:00000063000000000000000000000000
#0013b0:13
#001380:00230000
#001350:0013
#001320:00000023
#002380:1300003300000000
#0023b0:00000033000000000000230000000000
#003320:13
#003350:00230000
#003380:0013
#0033b0:00000023
#004350:1300003300000000
#004320:00000033000000000000230000000000
#0053b0:13
#005380:00230000
#005350:0013
#005320:00000023
#0063b0:1300003300000000
#006380:00000033000000000000230000000000
#007320:13
#007350:00230000
#007380:0013
#0073b0:00000023
#008320:1300003300000000
#008350:00000033000000000000000023000000
#010380:00001323
#012350:00001323
#013380:13
#0133b0:00230000
#013320:0013
#013350:00000023
#014380:1333003323000000
#0143b0:00330000
#015350:13
#015320:00230000
#0153b0:0013
#015380:00000023
#016350:1333003323000000
#016320:00330000
#018340:0000001400000000
#018320:0000000000240000
#020380:0000001400000000
#0203a0:0000000000240000
#022350:1300002300000000
#022320:00000033000000000000000000000000
#0223b1:1300002300000000
#022381:00000033000000000000000000000000
#024381:1300002300000000
#0243b1:00000033000000000000000000000000
#024320:1300002300000000
#024350:00000033000000000000000000000000
#027340:00001434
#027320:0000000000340024
#031380:00001434
#0313a0:0000000000340024
#033350:00130000
#033320:0023
#033380:00000013
#0343b0:23
#035320:00130000
#035350:0023
#0353b0:00000013
#036380:23
#037380:00130000
#0373b0:0023
#037350:00000013
#038320:23
#0393b0:00130000
#039380:0023
#039320:00000013
#040350:23
#041340:0000000000000012
#042340:00220000
#043320:0000000000000013
#044350:00230000
#0453b0:0000000000000013
#046380:00230000
#050380:1300003300000000
#0503b0:00000033000000000000230000000000
#052320:1300003300000000
#052350:00000033000000000000230000000000
#054350:1300003300000000
#054320:00000033000000000000230000000000
#056380:1300003300000000
#0563b0:00000033000000000000230000000000
#061320:00000013333300000000000000000000
#061350:0000002300000000
#061380:0000000013230000
#061350:0000000000001323
#063380:00000000000000000013000000000000
#0633b0:00000000000000000000002300000000
#065380:00000000000000001333333300000000
#0653b0:00000023
#066350:13333333000000000000000000000000
#066320:00230000
#066380:00000000000000000000001300000000
#0663b0:0000000000000023
#067350:00000000000000000000001300000000
#067320:0000000000000023
#0683b0:13
#068380:0023000000000000
#068320:00130000
#068350:0000002300000000
#0683b0:0013
#068380:0000000000230000
#068320:00000013
#068350:0000000000000023
#071380:00000000000000001333333300000000
#0713b0:00000023
#072350:0000000013330000
#072320:0000000000000023
#074380:13330033230000000000000000000000
#0743b0:0033000000000000
#075350:00000000000000001333003323000000
#075320:0000000000330000
#076380:13
#0763b0:0023000000000000
#076350:00130000
#076320:0000002300000000
#077350:13000000000000000000000000000053005300000000005300530000000000530053000000000000000000530053000053000000000000530053000000000000
#077340:00550000
#077330:00000000000057000000005700005700
#077320:0059
#078350:53000053000053000000530000530000
#078330:00570000000000000000005700005700
#078320:00000000590000590000000000000000
#079350:00530000005300005300005300005300
#079330:00005700000057000057000057000000
#079340:00000000000000000000000000000055
#080350:00530000530000530000000000000000
#080340:00005500005500005500000000000000
#081350:00230000
