This file was generated by Ched 2.7.0.0.
#TITLE ""
#ARTIST ""
#DESIGNER ""
#DIFFICULTY 0
#PLAYLEVEL
#SONGID ""
#WAVE ""
#WAVEOFFSET 0
#JACKET ""
#REQUEST "ticks_per_beat 480"
#00002: 4
#BPM01: 128
#00008: 01
#TIL00: ""
#HISPEED 00
#MEASUREHS 00
#00012:0000000000130000
#00015:00000013
#00018:0000000000000013
#0011b:1313
#00117:00130013
#00116:1313
#00119:0013001300130013
#00212:1300001300000000
#00216:00000013000000000000000000000000
#0021b:13000013000000000000130000000000
#00219:0013
#00218:00000013
#00215:0000000000000013
#0051b:13130013
#00516:00130013
#00512:13
#00517:0013
#00519:0000001300000000
#00514:0000000000000013
#00618:00000013
#00615:0000000000000013
#0061b:00000013000000000000000000000000
#00617:0000001300000000
#00612:1300000000130000
#00616:00000013000000000000000000000000
#00918:1212
#00916:00120012
#00912:1212
#0091c:00120012
#0091a:0012000000120000
#00910:41
#0101c:12
#0101a:0012000012000000
#01018:0000120000120012
#01016:0000001200000000
#01014:00001212
#01012:12
#01316:00130000
#01317:1313
#0131b:00000013
#01312:1313
#01319:0000001300000013
#01412:1313
#01416:00130013
#0141b:00130013
#01417:1333003300000000
#01414:0013001300130000
#01719:13131313
#01715:00130013
#0171b:0013000000130000
#01717:0000001300000013
#01712:2313000023130000
#01710:41
#01816:00000013000000000000000000000000
#01817:0000001300000000
#01815:00000013
#01812:1300000000130000
#01818:0000000000000013
#0181b:00000013000000000000000000000000
#02118:00000000130000130000130000001300
#02115:00001300000013000000000013000013
#02112:23132300
#0211b:23002313
#0251b:0000230000130013
#02512:13130000
#02515:0016001600000000
#02518:23002323
#02510:41
#02718:1313000000000000
#02712:2300000000130013
#0271b:00130000
#02715:0000231323002300
#03419:00000013000000000000000000000000
#0341b:00000000000013000000001300000000
#03412:1300130000000016
#03414:00000013000000000000000000000000
#03416:0013000000000000
#03418:00000000000000000000160000130013
#03415:00000016
#03218:23000000230000000000160000000013
#03215:00001300000013000000001316000000
#03212:13000000000000001300000000131600
#0321b:0013
#04112:12
#0411c:12
#04114:0000120012000012
#0411a:0000120012000012
#04118:0000000000120000
#04116:00000012
#0411f:11
#0421a:00120000
#04212:00120000000000001200000000000000
#04215:0000000000120000
#04218:00000012
#04216:0012
#04219:0000000000120000
#0421c:00000012
#04317:13
#0431b:0000130013000013
#04319:0013000000121200
#04315:0000000000121200
#04312:1300000013000013
#04314:0013000000000000
#04316:00130000
#0441b:0000000013130000
#04418:00000013
#04412:0013130000000000
#04415:0000001600000013
#04417:0000000013130000
#0451b:0000000000130000
#04517:0000131313000013
#04519:00000013
#04512:2313000000000013
#04516:13
#04618:00130000
#04617:0000000013130000
#0461b:00000013
#04616:0013000000000000
#04615:0000001300000000
#04612:0000000013130013
#0471b:00130023
#04716:0000140014001414
#04712:1300000023130023
#04812:0000000000130000
#04815:00000013
#04818:0000000000000013
#0491b:23000013130000000000000000000000
#04916:00000000000000000000001313000000
#04912:1323
#04919:0000001300000013
#04917:0013
#0491f:21
#04910:0041
#05017:13
#05015:00000013000000000000000000001300
#05012:1300001300000000
#0501b:00000000001313000000130000000000
#05018:00001313000000000000000013000000
#05716:13
#05712:00000019130000001319000013000000
#05718:0000130013000023
#05715:00000000000013000000000000000013
#0571b:00000013
#05815:00001600000000001300001913000000
#05812:00000000131300000000000000000000
#05818:0000230000000013
#0581b:23001313
#05912:13190000000000000000130000000000
#05915:00000000130016131600000013190000
#05918:13
#0591b:0000130000131300
#06118:00000000000000001313000000000013
#0611b:0000001300001300
#06115:23000000000000000000001600131600
#06116:0000001300000000
#06117:00000013000000000000000000000000
#0611a:00130000
#06113:00000000001300000000000000000000
#06112:0000000000160000
#06215:13001300001600160000000000001300
#06218:00160016000000000000000000000000
#06212:0000131313000000
#0621b:0000000013000013
#06318:13000016000000000000000000000000
#06312:00130000130000000000001300000000
#06315:0013000000000000
#06317:00000000001300000000000000000000
#06314:0000001300000000
#06319:00000000000000130000000000000000
#06316:0000000013140000
#0631b:00000000000000000013000000001300
#06418:1313000013000000
#06415:00000000130013000000001313000000
#06412:00130000000000000000000000001300
#0641b:00000000001300000000001313001300
#06416:00000014000000140000000000000000
#06512:00190019130000000000000000001300
#06518:2313130000000013
#06515:00000000000013002319131913000000
#0651b:0000001300001300
#06510:41
#06618:23001300130000000000131300000000
#06615:00000000000013000000001300000000
#0661b:0000001300000013
#06612:00190019130000001300000000000000
#06718:13000000000000000000001300000000
#0671b:0013000013000000
#06715:00000000161316000000131300000000
#06712:0013000013000013
#06817:1313
#0681b:0013000000130000
#06816:00130013
#06812:0000001300000013
#0691b:1300130000000013
#06918:00000013000013000000130000000000
#06915:13000000000000000013001300000000
#06912:0000000000001813
#06916:0028
#07018:00131300000000000013001300000000
#07015:00000000001313000000130000000000
#0701b:0000000000000013
#07012:0000000000001813
#07016:0028
#07118:13000000000000000000001300000000
#07115:00160000131619002613160016000000
#0711b:0000000000000013
#07112:0019000000000013
#07218:13000000001300001300000000000000
#07215:00130000130000001300130000000000
#07212:001c001c00000000
#07318:13000000000000000013000000000000
#07315:0019130013130000
#07312:13000000000019000000002300001300
#0731b:00000000130000000000002300001300
#07417:13130000
#0741b:00001300000000130013000000000000
#07418:00000000000013000000130000000013
#07416:0013000014001400
#07415:00000000001300000000001300001300
#07412:13330033000000000000000000130000
#0751b:00001300000000001333003300001300
#07515:0000161600000000
#07518:00000000001300000000000000000000
#07516:14001313
#07512:0013000000130013
#07517:0000000000130000
#07618:00161600000000000000000000000000
#0761b:0000000013130000
#07615:00000000000000000016001616001600
#07612:00000000001616000000000000130013
#00415:00000013
#00418:0000000000000013
#0041b:1300001300000000
#00417:00000013000000000000000000000000
#00412:13000013000000000000130000000000
#00414:0013
#00815:00000013
#00818:0000000000000013
#00812:00000013000000000000000000001300
#00816:0000001300000000
#0081b:1300000000130000
#00817:00000013000000000000000000000000
#02018:00000013
#02015:0000000000000013
#02017:00000013000000000000000000000000
#02016:0000001300000000
#0201b:1300000000130000
#02012:00000013000000000000000000000000
#0221b:1300001300000000
#02218:00000013000000000000000000001300
#02215:00000013000000000000000013000000
#02212:1300000000130000
#02418:00000013000000000000000013000000
#02415:00000013000000000000000000001300
#02412:1300001300000000
#0241b:1300000000130000
#02615:0016131600000000
#02612:1313
#02614:0000000000130000
#02616:00000013
#02617:0023
#02619:0000000000230000
#0261b:00230023
#02618:23
#03312:1313
#03316:0013000000130000
#03317:00132313
#0331b:2313001300130013
#03315:0000001300000013
#0351b:1300000000130000
#03517:0013000013000000
#03512:23132313
#03516:0000001300000013
#03510:41
#0361b:13000000000013000000000000130000
#03612:00000013000013000000160000000000
#03618:00130000001300000000001300001600
#03615:00001300130000000000000016000013
#05112:2313130000131300
#0511b:13000000000000131300000000000013
#05116:0000001323000000
#05114:0000000000000013
#05216:13
#05215:00001313000000000000000023000000
#05218:00000000001313000000000000002300
#0521b:13
#05212:0000000000230000
#05612:13000013
#05614:0000000000000013
#05616:00000000000000000000001400000000
#05618:00001313000000000000000000140000
#0561a:00000000000000000000000000000014
#05617:13
#05615:00000000001313000000000000000000
#0561b:0000000000230000
#06018:13000000000013000000000000000013
#06015:00000019130000001319000000001300
#0601b:00131313
#06012:13000013
#0281b:13131300
#02819:0000000000130000
#02817:00000013
#02815:2316231600000000
#02816:0023
#02814:0000000000230000
#02812:00000023
#07815:00160000000000000000000000000000
#07813:000000001a00001a0000000000000000
#07814:00000000000000000000001800001800
#07914:00001800000018000018000018000000
#07915:00000000000000000000000000000016
#08015:00001600001600000000000000000000
#08016:0014
#00312:1313
#00316:00130013
#00317:1313
#00314:0013001300130013
#00712:13130013
#00717:00130013
#0071b:13
#00716:0013
#00714:0000001300000000
#00719:0000000000000013
#01116:1212
#01118:00120012
#0111c:1212
#01112:00120012
#01114:0012000000120000
#01212:12
#01214:0012000012000000
#01216:0000120000120012
#01218:0000001200000000
#0121a:00001212
#0121c:12
#01517:00130000
#01516:1313
#01512:00000013
#0151b:1313
#01514:0000001300000013
#0161b:13000000130013000000230000130013
#01612:13000000001300130000000000000000
#01615:00130013000000000013001300002300
#01618:0013000013002300
#02315:00000000130000130000130000001300
#02318:00001300000013000000000013000013
#0231b:23132300
#02312:23002313
#02912:0000230000130013
#0291b:13130000
#02915:2316001623002300
#03115:1313000000000000
#0311b:2300000000130013
#03112:00130000
#03118:0000231323002300
#03018:00130000
#0301b:1313
#03019:0000000000130000
#03017:00000013
#03015:2316001600000000
#03016:0023
#03014:0000000000230000
#03012:00230023
#03814:00000013000000000000000000000000
#03812:00000000000013000000161300000000
#0381b:13130000
#03819:00000013000000000000000000000000
#03817:0013000000000000
#03815:00000000000000000000000016130013
#03818:0000000000000016
#0371b:1313
#03717:0013000000130000
#03716:00132313
#03712:2313001300130013
#03718:0000001300000013
#03912:1300000000130000
#03916:0013000013000000
#0391b:23132313
#03917:0000001300000013
#04012:1300001300131619
#0401b:00000013000013000000000000000000
#04015:00130000001300000000000000000000
#04018:0013130000000000
#01914:13131313
#01918:00130013
#01912:0013000000130000
#01916:0000001300000013
#0191b:2313000023130000
#05312:23000013130000000000000000000000
#05317:00000000000000000000001313000000
#0531b:1323
#05314:0000001300000013
#05316:0013
#05416:13
#05418:00000013000000000000000000001300
#0541b:1300001300000000
#05412:00000000001313000000130000000000
#05415:00001313000000000000000013000000
#0551b:2313130000131300
#05512:13000000000000131300000000000013
#05517:0000001323000000
#05519:0000000000000013
#00156:5353
#0015b:1313
#00252:5300005300000000
#00256:00000053000000000000000000000000
#0025b:13000053000000000000000000000000
#00552:5313
#00556:00530000
#0055b:13000063
#00557:0063
#01357:53
#01352:0053
#01356:00130000
#0135b:00000013
#01457:53
#0145b:00230000
#01456:00000013
#01752:1313
#01759:53535353
#0175b:0023000000230000
#01757:0000002300000023
#01852:53
#01856:00000053000000000000000000000000
#01857:0000005300000000
#02152:1313
#0215b:1313
#0225b:5300005300000000
#02258:00000053000000000000000000000000
#02255:00000053000000000000000000000000
#02252:63
#0255b:0000000000000013
#03352:5353
#03356:0023000000230000
#0335b:1300002300000023
#03357:00533353
#0355b:5300000000230000
#03557:0023000053000000
#03552:13533353
#03556:0000002300000023
#0435b:0000000000000053
#0495b:13
#04952:5313
#04957:0053
#05052:5300006300000000
#05055:00000063000000000000000000000000
#05255:00000063000000000000000000000000
#05258:0000006300000000
#0525b:63
#0515b:6363
#05152:13
#05156:0013
#06155:53
#06352:00000000000000000000005300000000
#06458:0013
#06558:00530000
#0655b:0000005300000000
#06555:00000063
#06552:0000000000000063
#06658:00530000
#0665b:0000005300000000
#06655:00000000000000000000005300000000
#06652:0000000000000013
#06758:00000000000000000000005300000000
#0675b:0000000000000013
#07358:13
#07355:00130000
#07258:0053
#07255:0000000000530000
#07252:001c001c00000000
#07456:0023000014001400
#07452:53
#07556:14
#0755b:0063
#07557:0000000000230000
#01054:00000012
#0105a:0052
#01058:0000000000220000
#07855:00560000000000000000000000000000
#07853:000000005a00005a0000000000000000
#07854:00000000000000000000005800005800
#07954:00005800000058000058000058000000
#07955:00000000000000000000000000000056
#08055:00005600005600000000000000000000
#08056:0054
#0045b:6300006300000000
#00457:00000063000000000000000000000000
#00452:13000063000000000000000000000000
#00357:6363
#00352:1313
#00656:00000053000000000000000000000000
#00652:53
#00657:1300005300000000
#00757:00630000
#0075b:6313
#00752:13000053
#00756:0053
#00856:1300006300000000
#0085b:63
#00857:00000063000000000000000000000000
#0125a:00000012
#01254:0062
#01256:0000000000220000
#01557:00130000
#01552:00000013
#0155b:0063
#01556:63
#02057:00000063000000000000000000000000
#02056:0000006300000000
#0205b:63
#02452:6300006300000000
#02455:00000063000000000000000000000000
#02458:00000063000000000000000000000000
#0245b:53
#0235b:1313
#02352:1313
#0265b:00130043
#02855:00130000
#02852:00000033
#02952:0000000000000013
#03052:00130033
#03452:53230000
#03454:00000053000000000000000000000000
#03456:0023000000000000
#0345b:0000001300000000
#03652:0000001300000000
#03852:0000001300000000
#0385b:63230000
#03859:00000063000000000000000000000000
#03857:0023000000000000
#0375b:6363
#03757:0023000000230000
#03756:00634363
#03752:1300002300000023
#03952:6300000000230000
#03956:0023000063000000
#0395b:13634363
#03957:0000002300000023
#0405b:0000001300000000
#04154:0000000000000052
#04252:00220000000000000000000000000000
#01954:63636363
#01952:0023000000230000
#01956:0000002300000023
#0195b:1313
#04556:53
#04557:0000530000000053
#0465b:00000053
#04752:0000000013000013
#0475b:00000013
#05458:00000053000000000000000000000000
#0545b:6300005300000000
#0535b:6313
#05356:0063
#05352:13
#05658:00000053000000000000000000000000
#05655:0000005300000000
#05652:53
#05552:5353
#0555b:13
#05557:0013
#05758:0000000000000013
#0585b:13
#05858:00130000
#0685b:0013000000130000
#06852:0000001300000013
#001360:13
#001320:00230000
#001360:0013
#001320:00000023
#002320:1300003300000000
#002360:00000033000000000000230000000000
#0023b1:00000013000000000000000000000000
#002371:0000002300000000
#003370:13
#0033b0:00230000
#003370:0013
#0033b0:00000023
#0043b0:1300003300000000
#004370:00000033000000000000230000000000
#004321:00000013000000000000000000000000
#004361:0000002300000000
#005320:1323
#005360:00330000
#005371:0013
#0053b1:00000033
#006371:23
#006320:1300002300000000
#006360:00000033000000000000000000000000
#006371:0000001300000000
#0063b1:0000000000230000
#0073b1:1323
#007371:00330000
#007360:0013
#007320:00000033
#008360:23
#0083b1:1300002300000000
#008371:00000033000000000000000000000000
#008360:0000001300000000
#008320:0000000000230000
#0103a0:00001222
#010380:0000000000520000
#012340:00001222
#012360:0000000000520000
#013370:13
#0133b0:00230000
#013320:0013
#013360:00000023
#014370:1333003323000000
#0143b0:00330000
#015360:13
#015320:00230000
#0153b0:0013
#015370:00000023
#017390:13333333
#0173b0:0053000000530000
#017370:0000005300000053
#018390:23
#018321:1300002300000000
#018361:00000033000000000000000000000000
#018370:0000001300000000
#0183b0:0000000000230000
#019340:13333333
#019320:0053000000530000
#019360:0000005300000053
#020340:23
#0203b1:1300002300000000
#020371:00000033000000000000000000000000
#020360:0000001300000000
#020320:0000000000230000
#022320:1300002300000000
#022350:00000033000000000000000000000000
#0223b1:1300003300000000
#022381:00000033000000000000230000000000
#0243b1:1300002300000000
#024381:00000033000000000000000000000000
#024320:1300003300000000
#024350:00000033000000000000230000000000
#025320:00001333
#025350:0000000000330023
#0273b0:00001333
#027380:0000000000330023
#0293b0:00001333
#029380:0000000000330023
#031320:00001333
#031350:0000000000330023
#033320:13230000
#033360:0053000000000000
#033371:00132300
#0333b1:0000005300000000
#033320:00001323
#033360:0000000000530000
#033371:00000013
#0333b1:0000000000000053
#034371:23
#034320:13530000
#034360:0053002300000000
#034340:00000033000000000000000000000000
#0353b0:13230000
#035370:0053000000000000
#035321:00132300
#035361:0000005300000000
#035370:00001323
#0353b0:0000000000530000
#035321:00000013
#035361:0000000000000053
#036321:23
#0373b1:13230000
#037371:0053000000000000
#037360:00132300
#037320:0000005300000000
#0373b1:00001323
#037371:0000000000530000
#037360:00000013
#037320:0000000000000053
#038360:23
#0383b1:13530000
#038371:0053002300000000
#038391:00000033000000000000000000000000
#039321:13230000
#039361:0053000000000000
#0393b0:00132300
#039370:0000005300000000
#039361:00001323
#039321:0000000000530000
#0393b0:00000013
#039370:0000000000000053
#0403b0:23
#041340:0000000000000012
#042320:00520000000000000000000000000000
#042340:00220000
#0433b0:0000000000000013
#044360:00230000
#045360:13
#0453b0:00230000
#045371:00130000
#045321:0023
#045371:0000000000000013
#0463b1:0023000000000000
#0463b1:00000013
#047371:23
#049321:13
#049361:00230000
#049371:0013
#0493b1:00000023
#050321:13
#050351:0023000000000000
#050351:00000013000000000000000000000000
#050321:00000000002300000000000000000000
#050321:0000001300000000
#050361:0000000000230000
#0513b1:13
#051371:00230000
#0513b1:0013
#051371:00000023
#0523b1:13
#052381:0023000000000000
#052351:00000013000000000000000000000000
#052321:00000000002300000000000000000000
#052381:0000001300000000
#0523b1:0000000000230000
#0533b1:13
#053371:00230000
#053361:0013
#053321:00000023
#0543b1:13
#054381:0023000000000000
#054381:00000013000000000000000000000000
#0543b1:00000000002300000000000000000000
#0543b1:0000001300000000
#054371:0000000000230000
#055321:13
#055361:00230000
#055321:0013
#055361:00000023
#056321:13
#056351:0023000000000000
#056381:00000013000000000000000000000000
#0563b1:00000000002300000000000000000000
#056351:0000001300000000
#056321:0000000000230000
#061351:13
#061321:00000023000000000000000000000000
#063321:00000000000000000000001300000000
#063351:0000000000000023
#065381:00132300
#0653b1:0000003300000000
#065351:00000013
#065321:0000000000000033
#066351:23
#066381:00132300
#0663b1:0000003300000000
#066351:00000000000000000000001300000000
#066321:0000000000000023
#067381:00000000000000000000001300000000
#0673b1:0000000000000023
#068321:13
#068371:0023000000000000
#0683b1:00130000
#068361:0000002300000000
#068321:0013
#068371:0000000000230000
#0683b1:00000013
#068361:0000000000000023
#069321:0000000014545454545454542400000000000000000000000000000000000000
#069331:00000000000000000054005400540054005400540054005400000000000000000000000000000000000000000000000000000000000000000000000000000000
#070321:13
#070351:0023000000000000
#0703b1:00130000
#070381:0000002300000000
#072381:0013
#0723b1:0000000000000023
#072350:0000000000130000
#072320:0000000000000023
#074320:13330033230000000000000000000000
#074360:0033000000000000
#0753b0:00000000000000001333003323000000
#075370:0000000000330000
#076320:13
#076350:0023000000000000
#0763b0:00130000
#076380:0000002300000000
#077370:12000000000000000000000000000052005200000000005200520000000000520052000000000000000000520052000052000000000000520052000000000000
#077360:00540000
#077350:00000000000056000000005600005600
#077340:0058
#078370:52000052000052000000520000520000
#078350:00560000000000000000000000000000
#078330:000000005a00005a0000000000000000
#078340:00000000000000000000005800005800
#079370:00520000005200005200005200005200
#079340:00005800000058000058000058000000
#079350:00000000000000000000000000000056
#080370:00520000520000520000000000000000
#080350:00005600005600000000000000000000
#080360:0054
#081370:00220000
