This file was generated by Ched 2.7.0.0.
#TITLE ""
#ARTIST ""
#DESIGNER ""
#DIFFICULTY 0
#PLAYLEVEL
#SONGID ""
#WAVE ""
#WAVEOFFSET 0
#JACKET ""
#REQUEST "ticks_per_beat 480"
#00002: 4
#BPM01: 128
#00008: 01
#TIL00: ""
#HISPEED 00
#MEASUREHS 00
#0011a:14
#00114:00140014
#00118:0014
#00312:14
#00318:00140014
#00314:0014
#0051a:14
#00514:00140000
#00518:0014
#00512:00000014
#00712:14
#00718:00140000
#00714:0014
#0071a:00000014
#0091a:14
#00914:0014
#00910:41
#01018:1414
#01014:00140000
#01112:14
#01118:0014
#01214:1414
#01218:00140000
#01318:14
#01312:0014
#0141a:1414
#01414:00140000
#01514:14
#0151a:0014
#01612:1414
#01618:00140000
#01714:00140014
#0171a:2414
#01710:41
#01918:00140014
#01912:2414
#02114:00140000
#02118:0014
#02112:00000014
#0211a:24
#02318:00140000
#02314:0014
#0231a:00000014
#02312:24
#0251a:14
#02514:0000140000140000
#02518:00001414
#02510:41
#02612:14
#02618:00140000
#02718:14001414
#02712:00140000
#02714:0000000000140000
#02814:14001414
#0281a:00140000
#02818:0000000000140000
#02912:14
#02918:0000140000140000
#02914:00001414
#0301a:14
#03014:00140000
#03114:14001414
#0311a:00140000
#03118:0000000000140000
#03218:14001414
#03212:00140000
#03214:0000000000140000
#03314:00140014
#0331a:2414
#0341a:14
#03418:00140000
#03518:00140014
#03512:2414
#03510:41
#03612:14
#03614:00140000
#03714:00140014
#0371a:0014
#03718:24
#03818:14
#0381a:00140000
#03918:00140014
#03912:0014
#03914:24
#04014:14
#04012:00140000
#04312:14140000
#0431a:14140000
#04318:0014
#04314:00000014
#0451a:14140000
#04512:14140000
#04514:0014
#04518:00000014
#04712:1400140000160016
#0471a:14140000
#04718:00001616
#04918:00140014
#04914:0014
#0491a:24
#04912:24
#0491f:21
#04910:0041
#05012:14
#05014:00340000
#05114:00140014
#05118:0014
#05112:24
#0511a:24
#0521a:14
#05218:00340000
#05318:00140014
#05312:2414
#0531a:24
#05414:14
#05412:00340000
#05514:00140014
#0551a:2414
#05512:24
#05618:14
#0561a:00340000
#05712:14
#05718:00140000
#05714:0014
#0571a:00000014
#05812:14
#05818:00140000
#05814:0014
#0581a:00000014
#05912:14140000
#05918:00001414
#06014:14140000
#0601a:00001414
#06112:14
#0611a:00000014
#06212:1414
#06218:00140000
#0631a:14
#0641a:1414
#06414:00140000
#06512:1414
#06518:00140014
#06510:41
#06614:1414
#0661a:00140014
#06912:14
#06918:00140000
#0701a:14
#07014:00140000
#07114:14
#0711a:00140000
#07218:14
#07212:00140000
#0411f:11
#07312:00343400
#0741a:00343400
#07514:00343400
#07618:00343400
#0345a:54
#03458:00240000
#03652:64
#03654:00240000
#03858:54
#0385a:00240000
#04054:64
#04052:00240000
#05052:54
#0525a:64
#05454:54
#05658:64
#06152:54
#0635a:64
#0445a:0014
#04652:0014
#06252:0014
#0645a:0014
#01058:0014
#01254:0014
#0145a:0014
#01652:0014
#0023a0:1424
#004320:1424
#006380:1424
#008340:1424
#0183a0:14
#018390:00340000
#018380:0024
#020320:14
#020330:00340000
#020340:0024
#022380:14
#022390:00340000
#0223a0:0024
#024340:14
#024330:00340000
#024320:0024
#026320:0014
#026330:0000000000340000
#026340:00000024
#0303a0:0014
#030390:0000000000340000
#030380:00000024
#0343a0:1424
#034380:00340000
#036320:1424
#036340:00340000
#038380:1424
#0383a0:00340000
#040340:1424
#040320:00340000
#041380:13
#042380:23
#044380:14
#044390:00340000
#0443a0:0024
#046340:14
#046330:00340000
#046320:0024
#050320:14
#050340:00342400
#0523a0:14
#052380:00342400
#054340:14
#054320:00342400
#056380:14
#0563a0:00342400
#061320:14
#061340:0024
#0633a0:14
#063380:0024
#067320:14
#067340:0024
#0683a0:14
#068380:0024
#069320:00001424
#0703a0:00001424
#071340:00001424
#072380:00001424
#073320:14343400
#073340:00000024
#0743a0:14343400
#074380:00000024
#075340:14343400
#075320:00000024
#076380:14343400
#0763a0:00000024
#077320:16
#081320:00240000
