This file was generated by Ched 2.6.4.0.
#TITLE ""
#ARTIST ""
#DESIGNER ""
#DIFFICULTY 0
#PLAYLEVEL
#SONGID ""
#WAVE ""
#WAVEOFFSET 0
#JACKET ""
#REQUEST "ticks_per_beat 480"
#00002: 4
#BPM01: 140
#BPM02: 190
#00008: 01
#01208: 02
#TIL00: ""
#HISPEED 00
#MEASUREHS 00
#08618:14
#0131a:14
#01310:41
#01412:14
#0211a:14
#0221a:14
#02312:14
#02412:14
#02518:14
#02618:14
#02714:14
#02814:14
#0291a:14
#03012:14
#0311a:14
#03212:14
#03318:14
#03414:14
#03518:14
#03614:14
#04518:14
#0471a:14
#04710:41
#04612:14
#04814:14
#06218:2616
#0621f:21
#06312:1616
#06310:41
#08312:14
#08310:41
#0841a:14
#08514:14
#08712:14
#0881a:14
#01814:14
#01918:14
#02014:14
#04918:14
#0511a:14
#05012:14
#05214:14
#05713:14
#05719:14
#06412:0016
#06418:16
#06718:1616
#06818:0016
#06812:16
#06612:1616
#07112:0016
#07118:26
#07712:0016
#07918:0016
#08119:0014
#08914:14
#09018:14
#07012:0016
#07018:16
#0531f:11
#07512:26
#07518:0026
#07818:26
#07612:26
#07618:0026
#08012:26
#07210:41
#03710:41
#001390:14
#002390:24
#003330:14
#004330:24
#0053a0:14
#0063a0:24
#007320:14
#008320:24
#0093a0:14
#0103a0:34
#0113a0:54
#0123a0:24
#0153a0:1400000000000034
#016390:0000003400000000
#016380:0000000000000024
#0373a0:14
#0383a0:24
#039320:14
#040320:24
#041380:14
#042380:24
#043340:14
#044340:24
#0533a0:14
#0543a0:24
#055320:14
#056320:24
#059340:14
#060320:00540000
#061340:00240000
#065380:1626
#069320:1626
#072380:1626
#073320:1626
#074380:1626
#076380:0016
#077380:26
#078380:1636003600360026
#080320:1636003600360026
#091320:14
#094320:0000000000000028
