This file was generated by Ched 2.6.4.0.
#TITLE ""
#ARTIST ""
#DESIGNER ""
#DIFFICULTY 0
#PLAYLEVEL
#SONGID ""
#WAVE ""
#WAVEOFFSET 0
#JACKET ""
#REQUEST "ticks_per_beat 480"
#00002: 4
#BPM01: 140
#BPM02: 190
#00008: 01
#01208: 02
#TIL00: ""
#HISPEED 00
#MEASUREHS 00
#0001c:00000012
#00016:00000012
#00118:12
#00114:00000012
#00116:0000000000120000
#0011c:00120000
#0021c:0000121200000000
#00214:00000012
#00216:0000000000000012
#00312:00120000
#00914:00120000
#01218:0000000000000013
#01215:00000000000000000000000000000013
#01315:00130013
#0131b:23130013
#01318:0013
#01312:2313
#01310:41
#01418:13
#01412:13
#01419:00130000
#0141a:0013
#0141b:00000013
#01413:00130000
#01414:0013
#01415:00000013
#0151b:0000130000000023
#01515:0000130000001323
#01512:2313
#01518:23000000000000000000000000130000
#01519:00000000000000000000003300000000
#0151a:00000000000000000033330000000000
#01718:0013000000130000
#01712:00130000
#0171b:00001313
#01715:00001313
#01818:13130000
#01815:00001300000000000000000033330000
#01812:13130000
#01817:0023
#01819:00000023
#01816:00000000000000000000000000003333
#01814:00000000000000000000333300000000
#01813:00000000000000000033000000000000
#01912:0013000000130000
#01918:00130013
#01915:0000001300000013
#0191b:2313
#0201b:13
#02018:0013000000000000
#02012:0000001324240000
#02015:0000130000000013
#0201a:0000000024240000
#05912:0013001300000023
#0591b:2300130000000023
#05918:0000000013131300
#05915:00000000000000000013001300000000
#06014:0000000014141400
#06018:00000000000000000014001400000000
#0601b:0023230000000000
#06012:0023230000000024
#0601a:0000000000000024
#08716:0012001200120012
#08718:22121212
#08815:0013001300130013
#08818:23131313
#08914:0014001400140014
#08918:24142414
#09013:0015001500000000
#09018:25250000
#09012:0000000025252525
#09019:0000000025252525
#08615:1323
#08612:00130023
#0861b:2313
#08618:00230013
#08117:00120012
#08012:1300002400000024
#0801a:0024000000240000
#08015:0024000000240000
#08017:0000002400000024
#08315:0013000013001300
#08312:0000130000000013
#0831b:2300001300001300
#08318:0000130000130000
#08310:41
#08418:1300001300001300
#08412:0013000013001300
#08415:0000130000000013
#0841b:0000130000130000
#08518:1300001300130000
#08515:0013000013000013
#08512:00130013
#0851b:00130013
#07812:1300002300000023
#07816:0023000000230000
#07915:0013000000000000
#07918:0000001300000000
#0771b:1313
#07712:0013000000130000
#07718:0000130000001313
#07715:00000000000013000000000000130013
#0721b:0000131300130000
#07215:00000000130000000000001300000000
#07219:00000013
#07213:00000000000000000000000000130000
#07217:1300000000000013
#07212:1313
#07210:41
#07312:0013000000000023
#07318:00000013000000000000000000000000
#07314:0000130000230000
#0731a:00000000001300000000000000000000
#07316:0000002300000000
#07319:0000000000230000
#07317:0000000000000023
#05718:14000012
#05716:0000000000120012
#05714:24
#05818:0012
#05816:00000012
#06115:00000013
#06118:0000000000000013
#0611a:0024240000000000
#06112:0024240000000000
#07115:00130013
#07112:2313
#0711b:0000131300001300
#07119:0000000000000013
#07118:23
#07018:0000000000001313
#07015:00000000230000000000130000130013
#07017:13
#0701b:0000230000130000
#06912:00000000000013000000000000000013
#06913:00000000000000000000000000130000
#06914:00000000000000000000001300000000
#06915:13000000130000000013000000000000
#06918:0000001300000013
#06919:00000013
#0691a:0000000000130000
#0691b:00131300
#06818:23000000130000001300000000000013
#06815:0013000013000013
#06812:23130013
#0681b:0013000000000000
#06718:1300000013000013
#06715:00000000000000000000000000000013
#06713:0000001300000000
#0671b:00130013
#06712:00130000000000000000000013000000
#07418:0000130000000013
#07415:00000013
#07412:0023
#0741b:0023
#0761b:0000001313000000
#07615:0000001300000000
#0761a:24
#06212:2300131300000013
#06215:0000000000130000
#06218:00130013
#0621b:2313
#0621f:21
#06315:0000001300000000
#06312:00000013
#06318:00130013
#0631b:1313
#06316:00130000000000000000000000000000
#06310:41
#0641b:2300131300000013
#06418:0000000000130000
#06415:00130013
#06412:2313
#06518:0000001300000000
#06515:00130013
#06512:1313
#06517:00130000000000000000000000000000
#0651b:00000013
#06615:0000131300000000
#06612:2300000000130000
#06614:00000013
#0661b:00130013
#06618:2313
#06616:0000000000000013
#01615:0000002300160000
#01618:0023000000000000
#01612:0023000000000024
#0161b:0000002300000000
#0161a:0000000000000024
#02215:0000131300001300
#02218:0000001300000013
#0221b:1300000000130000
#02315:0000130000130000
#02318:0000001300000013
#02312:0000001300000013
#0231b:00130000000000000000130000000000
#0241b:0013
#02417:00000013
#0251b:13
#02518:00000013
#0261b:0000131300000000
#02615:0000001300130000
#02618:0000000000000013
#02612:13
#02115:0000001300000013
#02118:00130013
#02112:0013000000130000
#0211b:2313
#0271c:0000001200000000
#02715:00000012
#02819:0012000000000000
#02812:0012
#0281b:0000000000130000
#02818:00000013
#02815:0000000000000013
#02918:0000130000130000
#0291b:0000001300000000
#02915:0000001300001300
#02912:0000000000000013
#0301b:0000130000130013
#03012:0000001300000000
#03015:0000000000130000
#03018:0000001300000000
#03112:0000131300000000
#03114:0000000000130000
#03116:0000000000000013
#03117:0000001300000000
#03119:0000000000130000
#0311b:0000000000000013
#03215:0000000000130000
#03212:0000000000000013
#0321b:0000000000130000
#03218:00000013
#03312:00130000
#03315:0000000013130013
#0331b:23131313
#03417:0000000000130000
#03412:13131313
#03419:00000013
#0341b:1300000000000013
#03712:0013000000130000
#03715:1300001300000013
#0371b:23001313
#03718:00130000
#03710:41
#03812:0000001300000013
#03814:00000013
#0381b:00001313
#03818:13130000
#03816:0000000000130000
#03815:13
#0391b:1300131300130000
#03919:00000013
#03917:0000000000000013
#03912:00001313
#03915:13130000
#04016:0014
#04018:00000014
#04012:00001313
#04015:13130000
#04115:0000000000000013
#0411a:14
#04112:13000013
#04118:00001313
#0411b:00130000
#04215:0000130000130000
#04212:0000001300000000
#04218:00001313
#0421b:13130000
#0431b:0000000000000013
#04315:00001313
#04312:13130000
#04515:0000001300000013
#04512:1300000000130000
#0451b:00001313
#04518:23130000
#04615:0013
#04612:00000013
#0461b:00001313
#04618:13130000
#04718:0000001300000000
#04717:0000000000130000
#04719:00000013
#04712:00001313
#04715:13130000
#0471b:13
#04710:41
#0481b:0000000000130000
#04819:00000013
#04817:0000000000000013
#04812:00001313
#04815:13130000
#04915:0000131300000013
#04912:1300000000130000
#04918:00001313
#0491b:13130000
#05012:0013001300000013
#05015:0000000000130000
#05018:00001313
#0501b:13130000
#0511b:1300001300001300
#05115:0013000000001300
#05112:0000130013000013
#05118:0000130000130000
#04412:13130000
#0441b:13
#04418:0000000013000013
#04415:00000000000000001300000013000013
#03518:00130000
#03515:0000001300000000
#03519:0013
#03514:0000000000130000
#0351a:00000013
#03513:0000000000000013
#03512:13
#0351b:13
#0361b:13000000130000001300000000000033
#03612:0013001300000013
#03617:00000000000000000000003313000000
#03619:00000000000000000033000000330000
#03618:0000000000330000
#0361a:0000000000000033
#05218:0000131313000000
#05212:0014000000001300
#05215:00000000001300130000000000000000
#0521a:14
#05318:0016
#0531f:11
#05315:23
#0531b:23
#0541b:13
#05418:0013000000000000
#05415:00130000
#05412:0016
#0561a:0014
#05612:0000001314000000
#05613:00000014
#05619:00000014
#0561b:13
#05618:0013000000000000
#05615:00130000
#05512:13
#05515:0013000000000000
#05518:00131600
#00716:0000001200000000
#09415:00000016
#07512:24
#07514:00240000
#07516:0024
#07518:00000024
#01652:0000000000000014
#0165a:0000000000000014
#07356:0000001300000000
#07359:0000000000130000
#07352:0000000000000013
#0765a:14
#06753:0000001300000000
#06752:00230000000000000000000000000000
#07257:0000000000000013
#0725b:0000001300000000
#06252:1300000000000053
#06356:00230000000000000000000000000000
#06355:0000001300000000
#06557:00230000000000000000000000000000
#06558:0000001300000000
#0645b:0000000000000063
#07158:13
#07055:00130000
#0705b:00130000
#06858:0053
#06656:0000000000000063
#0255b:13
#02558:00000053
#02855:0000000000000063
#02952:0000000000000053
#0305b:0000000000000063
#03657:00000053
#0365b:0063
#05355:13
#0535b:13
#05358:0016
#05258:0053
#05252:00000053
#05452:0016
#05758:64
#05754:14
#05558:0016
#02258:0000000000000053
#0225b:63
#02255:0000006300000000
#0235b:00230000000000000000000000000000
#02652:63
#02655:0000000000630000
#0265b:0000005300000000
#04555:0000000000000063
#04552:53
#09455:00000026
#0375b:13
#0865b:13
#08658:00130000
#08655:0013
#08652:00000013
#03855:63
#0445b:63
#04458:0053
#0475b:63
#0135b:13
#08157:00000022
#08254:00000018
#04152:13
#0215b:13
#001320:12
#001360:0000002200000000
#0013c1:0000001200000000
#001381:0000000000000022
#001320:0000000000000012
#002360:0000002200000000
#003380:1200002200000000
#003341:0000001200220000
#0033c0:0000000000120000
#003380:0000000000000022
#003361:0000000000000012
#004321:0022000000000000
#004380:0012000000000000
#0043c0:0000002200000000
#004321:0000001200000000
#004361:0000000000220000
#0043c0:0000000000120000
#004380:0000000000000022
#004361:0000000000000012
#006321:22
#006380:12220000
#006341:00122200
#0063a0:00001222
#006361:00000012
#007361:22
#0073c0:1222
#007361:0012
#008321:0022
#0083c0:00001222
#008361:00000012
#009361:22
#0093a0:1200002200000000
#009321:0000001200220000
#009380:0000000000120000
#010380:52
#011390:52
#012390:25
#009361:0000000000000012
#010361:52
#011351:52
#012321:25
#0153b1:0013
#0153a1:00000000000000000033330000000000
#015391:00000000000000000000003300000000
#015381:00000023
#018321:0013
#018331:00000000000000000033000000000000
#018341:00000000000000000000333300000000
#018351:00000000000000000000000033330000
#018361:00000000000000000000000000003333
#019361:23
#0223b1:13
#022381:00230000
#022351:0000001300000000
#022321:0000000000230000
#022381:0000000000000013
#0233b1:00530000000000000000000000000000
#023381:00230000
#024361:0013
#024321:00000033
#025361:23
#025381:00000013
#0263b1:23
#026320:13
#026350:00230000
#0263b0:0000001300000000
#026380:0000000000230000
#026351:0000000000130000
#026321:0000000000000023
#028351:0000000000000013
#029321:00230000
#029321:0000000000000013
#030351:00230000
#0303b1:0000000000000013
#031371:00230000
#0363b1:00000000000000001300000000000033
#036391:00000000000000000033000000330000
#036381:0000000000330000
#036371:00000000000000000000003333000000
#0363a1:0000000000000033
#0373b1:23
#038351:13
#038321:00230000
#042381:0000000000000013
#0433b1:00000023
#0443b1:13
#044381:00230000
#044381:0013
#0443b1:00000023
#045321:13
#045351:00230000
#045351:0000000000000013
#046321:00230000
#0473b1:13
#047381:00230000
#0473b1:0000000000000013
#0483b1:00230000
#052381:0013
#0533b1:23
#052320:00000013
#053350:23
#057380:1400000000220000
#062320:0000000000000013
#063360:00530000000000000000000000000000
#063320:00230000
#0643b0:0000000000000013
#065370:00530000000000000000000000000000
#0653b0:00230000
#066360:0000000000000013
#067320:00530000000000000000000000000000
#067360:00230000
#068380:0013
#0683b0:00000023
#075320:000000143434
#075340:000000000000003400340034
#076320:24
#076350:0013
#077320:23
#0783b0:13333300000000000000330000000000
#0783a0:00000033000000000033003300000000
#078390:00333333
#078380:00000000003300330000000000330000
#078370:0000003300000023
#079320:0013
#079350:00000023
#079381:00000013
#0803b1:23
#081371:00001252
#082341:00000028
#091371:12
#093361:54
#094351:00000056
#094321:000000000000002c
