This file was generated by Ched 2.6.4.0.
#TITLE ""
#ARTIST ""
#DESIGNER ""
#DIFFICULTY 0
#PLAYLEVEL
#SONGID ""
#WAVE ""
#WAVEOFFSET 0
#JACKET ""
#REQUEST "ticks_per_beat 480"
#00002: 4
#BPM01: 140
#BPM02: 190
#00008: 01
#01208: 02
#TIL00: ""
#HISPEED 00
#MEASUREHS 00
#0001a:00000012
#00114:12
#00116:0000001200001200
#0011a:0000000000120000
#00118:00120000
#00218:00000012
#00216:0000000000000012
#00214:0000001200000000
#00316:00120000
#00318:12
#0031a:0000001200000000
#00918:00120000
#00914:1200000000120000
#00916:0000001200000000
#0091a:0000000000120000
#01218:0000000000000013
#01412:13
#01415:00130000
#01418:0013
#0141b:00000013
#01518:00001313
#01515:0000000000130023
#0151b:0000000000000023
#01715:0013000013000000
#0171b:00130000
#01718:0000000000130000
#01712:00000013
#01818:13
#01815:0013000000000000
#0181b:00130000
#01816:00000024
#01812:0024
#01915:00130000
#01918:0000001300000000
#01914:0013
#01919:0000000000130000
#01913:00000013
#0191a:2400000000000013
#02012:13132600
#0201b:0013001300000000
#02015:0000000000000013
#02018:0000000000260000
#08718:22120000
#08716:0012001200000000
#08818:0013001300000000
#08815:23130000
#08914:0014001400000000
#08918:2400140000340000
#08917:00000034
#09018:0015001500260026
#09013:25250000
#09012:00002626
#08118:00120000
#08116:00000012
#08315:0013000000130000
#08318:00130013
#08312:0000001300000013
#0831b:2313
#08310:41
#0841b:1313
#08412:0013000000130000
#08418:00130013
#08415:0000001300000013
#08518:1313
#08512:0013000000130000
#0851b:00130013
#08515:0000001300000013
#07812:1300000000000023
#0781b:0023000000000023
#07815:0000002300000000
#07818:0000000000230000
#07718:0013
#07715:00000013
#07212:0000000000130000
#07218:13000013
#07215:0000130000000013
#0721b:0000001300000000
#07210:41
#07318:0013000000000023
#07315:00130000
#0731b:0000002300000000
#07312:0000000000230000
#05718:00000012
#05716:0000000000120012
#05712:24
#05818:0012
#05816:00000012
#06112:00000013
#06118:0000240000000013
#06114:0024000000000000
#07115:0000131300000013
#0711b:0000131300000000
#07118:00000013
#06918:0000131300000013
#06915:13000013
#0691b:1300000000130000
#06912:0000131300000000
#07018:0000000000130013
#07012:0000000000130013
#0701b:00230000
#07015:00230000
#0671b:00000013
#06712:0000000000000013
#06718:0000001300000000
#07418:00130000
#07415:00000013
#07412:0023
#0741b:0023
#07615:0000001300000000
#0761a:24
#0621b:0000130000130000
#06215:0000001300000013
#06212:2300000000130000
#0621f:21
#06318:0000001300001300
#06312:00000013
#06310:41
#06818:23130000
#06812:0013
#06815:0013000000000000
#01616:0000000000140000
#01618:0023000000000000
#01612:0023000000000024
#01615:0000002300000000
#0161b:0000002300000000
#0161a:0000000000000024
#02215:0000001300001300
#0221b:1300000000130000
#02218:0000000000000013
#02312:0000001400000000
#02316:0000000000140000
#0231a:0000000000000014
#02618:00130000
#02615:0000001300000000
#02112:0000000000130013
#02118:00001313
#02115:0013001300000000
#0211b:23130000
#02815:0000000000130013
#02818:00000013
#02918:0000001300130000
#02915:00000013
#0291b:0000000000000013
#03012:0000000000130000
#03018:0000000000130013
#03015:0000001300000000
#03212:0000000000130013
#03218:0000000000130013
#0331b:00130000
#03315:0013
#03318:0000000000130000
#03418:0000000000130000
#0371b:0013000000130000
#03718:0000001300000013
#03715:00130013
#03712:2313
#03710:41
#03815:00000013
#03812:13
#0381b:0000001300000000
#03818:0000000000000013
#03915:0000001300000000
#0391b:0000000000130000
#03912:00000013
#04012:0014
#04016:00000014
#0411a:14
#04118:00000013
#04115:0000000000000013
#04218:0000001300000013
#04215:0000000000130000
#04315:0000000000000013
#04515:2300001300000013
#04518:0000130000130000
#04512:00130000
#0451b:23
#04612:0013
#04615:00000013
#0461b:00000013
#04618:0013
#0471b:0000001300000000
#04712:1300000000130000
#04715:00000013
#04710:41
#0481b:0000000000130000
#04818:00000013
#04918:0000001300000000
#04912:0000000000130000
#0491b:0000000000000013
#05018:0000130000130000
#05015:0013000000001300
#05012:0000001300000000
#03112:0000001400000000
#03116:0000000000140000
#0311a:0000000000000014
#03518:0000130000130000
#03515:0000001300000013
#0351b:0000000000000013
#03512:0000000000130000
#03618:0000130000000013
#03612:0000001300000000
#05218:00131300
#05215:0000001300000000
#05212:13
#0521b:13000013
#05318:23000013
#05315:0000000000000013
#0531f:11
#0561a:0014
#05616:00000014
#02518:00000013
#0251a:14
#00718:0000001200000000
#00715:12
#0441b:13
#04412:0013
#00416:0000000000120000
#00613:12
#00619:00120000
#00614:0012
#0061a:00000012
#02418:0014
#02412:00000014
#05418:00000013
#05415:0000000000000013
#05512:13
#0551b:00130000
#05515:0000001300000013
#05518:0000000000130000
#05912:0000000013000023
#0591b:0000000000000023
#06018:0023000014001400
#06014:0000000000140000
#06015:00230000
#0601a:0000000000000024
#06012:0000000000000024
#06412:0000130000130000
#06418:0000001300000013
#0641b:2300000000130000
#06415:23
#06515:0000001300001300
#0651b:00000013
#06615:0000130000130013
#0661b:0000001300000000
#06618:23000013
#06612:23
#08012:1400000000000024
#0801a:0024000000000024
#08014:0000002400000000
#08018:0000000000240000
#0791a:0014
#07916:00000014
#0861b:23
#08615:00230000
#08618:0023
#08612:00000023
#0751a:24
#07516:00240024
#07512:0024
#01310:41
#0165a:0000000000000014
#01652:0000000000000014
#0735b:0000001300000000
#07352:0000000000130000
#07358:0000000000000013
#0765a:14
#07255:0000000000000013
#0725b:0000001300000000
#07055:00130000
#0705b:00130000
#07058:0000000000000013
#07052:0000000000000013
#06852:0053
#06252:13
#06255:0000000000000063
#03058:0000000000000053
#05358:13
#05258:0053
#0525b:00000063
#02258:0000000000000053
#0225b:63
#02655:0000005300000000
#04555:0000000000000063
#02558:00000053
#0255a:14
#0865b:13
#08655:00130000
#08658:0013
#08652:00000013
#03852:53
#0385b:0000006300000000
#03858:0000000000000053
#0445b:63
#04452:0053
#04752:53
#05752:14
#06358:0000001300000000
#02855:0000000000000063
#0295b:0000000000000063
#04155:0000000000000063
#0415a:14
#04258:0000000000000053
#06555:0000001300000000
#06458:0000000000000053
#06758:0000001300000000
#06655:0000000000000063
#08254:00000016
#08156:00000022
#0013a0:0000000000000012
#0023a0:00220000
#003340:0000000000120022
#0043a0:0012002200000000
#004380:0000000000000012
#005380:00000022
#007340:0012
#008340:22
#0083a0:00001222
#009360:0000000000000012
#010360:52
#011370:52
#012330:2a
#013350:13230000
#0133b0:00001323
#015320:13
#015350:00230000
#0223b0:13
#022380:00230000
#022380:0000000000000013
#0233b0:00230000
#025380:00000013
#0263b0:23
#026350:0000001300000000
#026320:0000000000230000
#026380:0000000000000013
#0283b0:23
#028350:0000000000000013
#029320:00230000
#0293b0:0000000000000013
#030380:00230000
#030380:0000000000000013
#0313b0:00230000
#033320:0000000000000013
#034320:00230000
#034350:00000013
#035320:23
#038320:13
#038350:00230000
#0383b0:0000001300000000
#038380:0000000000230000
#038380:0000000000000013
#0393b0:00230000
#039380:0000000000000013
#040380:00230000
#041350:0000000000000013
#042320:00230000
#042380:0000000000000013
#0433b0:0023
#0443b0:13
#044380:00230000
#044320:0013
#044350:00000023
#045350:0000000000000013
#046320:00230000
#047320:13
#047350:00230000
#047380:0000000000000013
#048380:00230000
#048350:0000000000000013
#049350:00230000
#0503b0:0000000000000013
#051380:0023
#052380:0013
#0523b0:00000033
#053380:23
#059380:13
#0593b0:0000002300000000
#062350:0000000000000013
#063320:00230000
#064380:0000000000000013
#0653b0:00230000
#066350:0000000000000013
#067320:00230000
#068320:0013
#068350:00000023
#0763b0:0013
#077380:00230000
#081360:00001252
#082340:00000026
#0873a0:0012
#087390:0000000000320000
#087380:00000032
#087370:0000000000000022
#088330:0013
#088340:0000000000330000
#088350:00000033
#088360:0000000000000023
#0893a0:0014
#089380:0000000000340000
#089370:00000034
#089360:0000000000000024
#091320:13
#094320:000000000000002c
