This file was generated by Ched 2.6.4.0.
#TITLE ""
#ARTIST ""
#DESIGNER ""
#DIFFICULTY 0
#PLAYLEVEL
#SONGID ""
#WAVE ""
#WAVEOFFSET 0
#JACKET ""
#REQUEST "ticks_per_beat 480"
#00002: 4
#BPM01: 140
#BPM02: 190
#00008: 01
#01208: 02
#TIL00: ""
#HISPEED 00
#MEASUREHS 00
#08718:24140000
#08714:00001414
#08114:00000014
#00615:0013
#00815:0013
#00918:13
#00915:0013
#01318:14140000
#01314:00001414
#01310:41
#0141a:1414
#01412:00140014
#0171a:0014
#01714:0014
#01818:14
#01812:1424
#01816:00000024
#01912:00140014
#0191a:2414
#0201a:14
#02012:0000140000260000
#02018:0026
#0211a:14
#02114:0014
#02318:14
#02312:0014
#0251a:14
#02514:0014
#0291a:14
#02914:0014
#03318:14
#03314:0014
#0411a:1414
#04114:00140000
#04214:1414
#0421a:00140000
#04318:1414
#04312:00140000
#04412:1414
#04418:00140000
#0371a:14141400
#03710:41
#03812:14141400
#03918:14141400
#04014:14141400
#0551a:0014
#05518:00000014
#05612:0014
#05614:00000014
#06212:00140000
#06218:0014
#06214:00000014
#0621a:24
#0621f:21
#0641a:0014
#06418:14
#06412:00000014
#06414:00140000
#06616:00140014
#06612:0014
#0661a:14
#06812:14
#06816:00140014
#0681a:0014
#0711a:00140000
#07112:2614
#07118:00000014
#07218:0000000000140014
#07214:00000014
#07210:41
#0741a:0014
#07712:0014
#0771a:00000014
#07918:0016
#07912:00000016
#08312:00140014
#0831a:2414
#08310:41
#08418:1414
#08414:00140014
#0851a:14
#08512:00140000
#08518:0014
#08514:00000014
#08818:24140000
#08814:00001414
#08918:25150000
#08913:00001515
#07312:0014000000240000
#0731a:0000002400000024
#02812:0014
#02818:14
#02714:0014
#0271a:14
#02612:0014
#02618:14
#02412:0014
#02418:14
#02214:0014
#0221a:14
#03112:14
#03118:0014
#03512:14
#03518:0014
#04514:00140014
#0451a:1414
#04612:00140000
#04618:1414
#04718:00140014
#04712:1414
#04710:41
#0481a:00140000
#04814:1414
#04912:00140000
#0491a:14
#04918:0014
#04914:00000014
#05012:00140000
#0501a:14
#05018:0014
#0511a:00140000
#05112:14
#05114:0014
#05118:00000014
#0521a:00140000
#05212:14
#0531f:11
#05312:24
#06018:0024000000000026
#06014:00240000
#06112:0026000000000000
#06118:00260000
#07512:24
#07518:00240000
#07514:0024
#0751a:00000024
#07616:24
#07018:00260000
#05712:24
#09018:25002626
#09012:0000000000260026
#09013:00250000
#0151a:0000000000000024
#01616:0024000000000000
#01612:0000002400000024
#0161a:0000000000000024
#05912:0000000000000024
#07812:24
#08018:26
#0861a:24
#08614:00240000
#08618:0024
#08612:00000024
#06310:41
#07656:14
#07058:00160000
#05752:14
#08154:00000024
#05352:14
#0555a:0064
#05558:00000024
#05652:0054
#05654:00000024
#07152:16
#0735a:0000000000000014
#0013b0:13
#0023b0:23
#003320:13
#004320:23
#005380:13
#006380:23
#007380:1333
#008380:23
#010380:13
#011380:53
#012350:29
#0153a0:1424
#0303a0:1424
#032320:1424
#0343a0:1424
#036340:1424
#052340:0014
#053320:24
#0533a0:0014
#054380:24
#054320:0014
#055340:24
#0553a0:0014
#055380:00000054
#0563a0:24
#056320:0014
#056340:00000054
#057320:24
#0593a0:1424
#0633a0:14240000
#063320:00001424
#065380:14240000
#065340:00001424
#0673a0:14240000
#067320:00001424
#069320:14
#069340:0024
#072320:14240000
#0763a0:0014
#0773a0:24
#078320:1434000000000024
#078350:0000003400340000
#080380:1636000000000026
#080350:0000003600360000
#081340:00001454
#082320:00000028
#0913a0:14
#094320:000000000000002c
