This file was generated by Ched 2.7.0.0.
#TITLE ""
#ARTIST ""
#DESIGNER ""
#DIFFICULTY 0
#PLAYLEVEL
#SONGID ""
#WAVE ""
#WAVEOFFSET 0
#JACKET ""
#REQUEST "ticks_per_beat 480"
#00002: 4
#BPM01: 114
#00008: 01
#TIL00: ""
#HISPEED 00
#MEASUREHS 00
#0101a:14
#01010:41
#01212:14
#01418:14
#04212:0016
#04218:26
#0421f:21
#0111a:14
#01312:14
#01514:14
#01812:14
#01810:41
#0201a:14
#02214:14
#01912:14
#0211a:14
#02318:14
#03018:14
#03112:14
#03218:14
#03318:14
#03310:41
#03814:14
#0391a:14
#04014:14
#04114:14
#04318:1616
#04310:41
#04618:0016
#04612:16
#04712:1616
#0521a:0014
#05214:14
#05312:14
#05318:0014
#0341f:11
#02610:41
#04810:41
#000390:14
#001390:24
#002330:14
#003330:24
#004390:14
#005390:24
#006340:14
#007340:0000000034000034
#009320:24
#016380:14
#017380:24
#024340:14
#025340:24
#0263a0:14
#0273a0:24
#028340:14
#029340:24
#034320:14
#035320:24
#036380:14
#037380:24
#044320:1626
#045380:1626
#048380:1626
#049320:1626
#050380:16
#051380:0026
#054340:14
#056340:0000000000000024
