This file was generated by Ched 2.7.0.0.
#TITLE ""
#ARTIST ""
#DESIGNER ""
#DIFFICULTY 0
#PLAYLEVEL
#SONGID ""
#WAVE ""
#WAVEOFFSET 0
#JACKET ""
#REQUEST "ticks_per_beat 480"
#00002: 4
#BPM01: 114
#00008: 01
#TIL00: ""
#HISPEED 00
#MEASUREHS 00
#0071b:0013
#00718:0000000000000013
#01017:13
#01016:00000013000013000000000000000000
#0101b:00000000001300000000000013000000
#01018:0000000000130013
#01010:41
#0111b:1300001300000013
#01112:0013000000001300
#01118:00000013000000000000130000000000
#01115:1300001300000000
#0131b:1313000000130000
#01318:00000013
#01315:0000000000000013
#01316:13
#01317:0000001300000000
#01312:00000013
#01512:0000001300130000
#01515:0000000000000013
#01518:00000013
#01516:13
#01514:00000013000000000000000000000000
#01519:00000013000000000000000000000000
#01517:0000001300000000
#0151b:13
#0161b:1300001300000000
#01618:0000000000130013
#01612:13000013000000000000000013000000
#01617:00000013000000000000000000000000
#02218:0013002300000000
#02215:00000013000000000000000000000000
#02212:13000013
#0221b:13000013
#02219:0000000000000013
#02512:1300002300000000
#0251b:1300002300000000
#02516:0000000000000013
#02515:00000013000000000000000000000000
#02518:00000013000000000000000000000000
#01217:0013000000000000
#0121b:00000000001300000000000013000000
#01218:0000000000130013
#0141b:13
#01418:0013000000000000
#01415:00000013000000000000000000000000
#01412:13000000001300000000000000001300
#01414:0000000000130000
#01413:00000013
#01712:1300002300000000
#01715:00000013000000000000000013000000
#0171b:1300002300130000
#01718:0000000000000013
#01816:13
#01817:0013001300000000
#01812:00000013001300000000000013000000
#01815:0000000000130013
#0181b:13
#01810:41
#01912:1300001300000013
#0191b:0013000000001300
#01915:00000013000000000000130000000000
#01918:1300001300000000
#02112:1313000000130000
#02117:13000013000000000000000000000000
#02116:0000001300000000
#0211b:0000000000131300
#02115:00000013
#02118:0000000000000013
#02016:0013000000000000
#02012:00000000001300000000000013000000
#02015:0000000000130013
#02314:00000013000000000000000000000000
#02316:0000001300000000
#0231b:0000001300130000
#02315:00000013
#02318:0000000000000013
#02312:13
#02317:13
#02319:00000013000000000000000000000000
#02415:00001313000000000000130000001300
#0241b:13000013000000000000000013000000
#02412:1300001300000000
#02417:00000000003300000000000000000000
#03212:00000013000000000000000000000000
#0321b:00000013000000000000000000000000
#03215:1300000000000000000000000000001300000000000000000000000000000000
#03218:1300000000000000000000000000001300000000000000000000000000000000
#03312:1300000000000000000000000000001300000000000000000000000013000000
#0331b:1300000000000000000000000000001300000000000000000000000000000000
#03315:00000013000000000000000000000000
#03318:00000013000000000000000000000000
#03310:41
#04118:13
#04115:2300000000000013
#0411b:00000013
#0401b:13000033000033000000000013000000
#04012:23000033000033000000000023000000
#04212:1300001300000013
#0421b:00000013000000000000130013000000
#04216:00000013
#04218:23
#0421f:21
#04312:13000013
#0431b:13001300001300000000000013000000
#04316:00000013000013000000000000000000
#04314:0000000000000013
#04319:0000000000000013
#04310:41
#04415:00000033133333000000000013000000
#04418:00000033133333000000000000001300
#04412:1333000000130000
#0441b:2333000000130000
#0461b:1300001300000013
#04612:00000013000000000000130013000000
#04617:00000013
#04615:23000000003300000000000000000000
#04618:0033000000000000
#0471b:1300000000130000
#04712:13001300001300000000000000001300
#04717:00000013000013000000000000000000
#04718:00000013
#04715:0000000000130000
#0481b:0000130000001313
#04812:0000131300001300
#04815:2323000000000000
#04818:0000000023230000
#04810:41
#05012:1313
#05018:0013
#0501b:00230013
#05016:00130013
#05014:0013001300130013
#0511b:00130013
#05118:1313
#05112:1313
#05116:00130013
#05114:0013001300130013
#0521b:1300001300000000
#05212:00130014
#05215:0000000013130013
#0521a:00000014
#05218:00000000000000000013000000000000
#0531b:13130000
#0531a:0014
#05312:13000000000000001400000000260026
#05316:0000001400140000
#05318:0000000000002626
#04515:13000000001300000000130000000000
#04512:0013000013002300
#04518:00000023000000000000000000001300
#0451b:2300002300002300
#02917:0000001300000013
#0291b:13
#02912:13000013000013000000000000000000
#02919:00000013000000000000000000000000
#03016:00000013000000000000000000001300
#03012:2300000000130000
#03017:0000001300000000
#03412:1300000000130000
#0341b:00000013000000000000000000001300
#03416:00000013000000000000000000000000
#03417:2300000000130000
#0341f:11
#02617:00000013000000000000000000001300
#0261b:2300000000130000
#02616:0000001300000000
#02610:41
#0311b:0000001300000000
#03112:0000000000000013
#03116:13
#03117:0013
#03115:00000000000000000000001300000000
#03119:00000013000000000000003300000000
#03114:00000033000000000000000000000000
#04918:13000000001300000000130000000000
#0491b:00001300000000001300000000333333
#04915:00000023000000001300000000001300
#04912:2300002300001300
#02816:0000000000130000
#02817:0000000000000013
#02812:00000013000000000000000000000000
#02815:13
#0281b:00000013000000000000130000000000
#02818:23
#03812:00000013000000000000000000001300
#0381b:1300000000130000
#03817:00000013000000000000000000000000
#03816:2300000000130000
#0371b:13000013000013000000000000001300
#03712:13
#03714:00000013000000000000000000000000
#03716:0000001300000000
#0361b:00000013000000000000000000000000
#03616:0000000000000013
#03618:13
#03612:00000013000000000000130000000000
#03617:0000000000130000
#03615:23
#0391b:00000013000000002300000000000000
#03918:1300001300000000
#03915:0000000013000013
#03912:23000000000000000000001300000000
#03512:00000013000000000000000000000000
#03515:2300001300000000
#03518:0000000023000013
#0351b:00000000000000000000001300000000
#02713:24
#02719:0024
#01057:53
#01056:0000006300000000
#0165b:0000001300000000
#01652:00000053000000000000000000000000
#01656:0000001300000000
#02552:5300001300000000
#0255b:6300001300000000
#02556:0000000000000063
#02558:00000053000000000000000000000000
#02555:00000063000000000000000000000000
#0115b:0000001300000000
#01557:0000001300000000
#0175b:6300001300000000
#01752:0000001300000000
#01856:63
#01857:0000005300000000
#02157:00000053000000000000000000000000
#0215b:0000001300000000
#01952:0000001300000000
#02356:0000001300000000
#0325b:00000053000000000000000043000000
#03252:00000063000000000000000033000000
#03255:2300000000000000000000000000002300000000000000000000000000000000
#03258:2300000000000000000000000000002300000000000000000000000000000000
#03355:00000063000000000000000013000000
#03358:00000053000000000000000013000000
#03352:6300000000000000000000000000002300000000000000000000000000000000
#0335b:5300000000000000000000000000002300000000000000000000000000000000
#04158:13
#04155:13
#0405b:23
#04052:23
#04255:00000013000000000000000000000000
#04252:5300005300000000
#0425b:00000063000000000000000000000000
#04258:1300001300000000
#04455:00230000
#04458:00230000
#0445b:53
#04452:63
#0465b:6300006300000000
#04652:00000053000000000000000000000000
#04658:00000013000000000000000000000000
#04655:1300001300000000
#0525b:63
#05252:13
#0245b:00000063000000000000000000000000
#02452:0000001300000000
#02457:0000001300000000
#02957:0000000000000053
#03056:00000063000000000000000000000000
#03052:0000001300000000
#0505b:00130000
#05056:00230023
#05052:2323
#05054:0053006300530063
#05057:13
#03452:5300001300000000
#0345b:00000053000000000000000000000000
#03456:00000053000000000000000000000000
#03457:0000001300000000
#0265b:0000001300000000
#02657:00000053000000000000000000000000
#05152:2323
#05156:00230023
#05154:0053006300530063
#05352:53
#01352:0000001300000000
#03156:63
#03157:0053
#04952:1300001300000000
#04955:00000013000000000000000000000000
#02856:0000000000530000
#02852:00000063000000000000000000000000
#02855:6300001300000000
#0285b:00000053000000000000000000000000
#02858:0000001300000000
#0385b:6300001300000000
#03852:00000063000000000000000000000000
#03857:00000063000000000000000000000000
#03856:0000001300000000
#0365b:00000053000000000000000000000000
#03658:5300001300000000
#03652:00000063000000000000000000000000
#03655:0000001300000000
#03657:0000000000630000
#04855:0013000000000000
#04858:0000000000130000
#04757:0000001300000000
#04356:0000001300000000
#000380:150000000000000000000000000000000000000000000000000000000000000000000000000000000000000000000000000000000000000000000000000000550000000000000000550000000000000000000000000000000000000000000000550000000000000000550000000000000000000000000000000000000000000000000000000000000000000000000000000000000000000000000000000000000000000000000000000000005500000055000000000000000000000000000000000000000000000000000000000000000000000000000000000000000000000000000000000000000000000000550000000000000000550000000000000000000000000000000000000000000000000000000000000000000000000000000000000000000000000000000000000000000000000000000000000000000000000000000000000000000000000000000000000000005500000055000000000000000000000000000000000000000000000000000000000000000000000000000000
#000360:0000000000000000000000000000000000000000000056000000000000000000005500000000000000000000000000000000000000000000000000000000000000000000000000000000000000000000550000000000000000000000000000000000000000000000000000000000000000000000000000000000000000000000
#0003a0:0000000000000000000000000000000000000000000000540000000000000000000000000000000000000000000000000000000000000000000000000000000000000000000000000000000000000000000000000000000000000000000000000000000000000000000000000000000000000000000000000000000000000000
#000390:0000000000000000000000000000000000000000000000000000000000000000000055000000000000000000000000000000000000000000000000000000000000000000000000000000000000000000005500000000000000000000000000000000000000000000000000000000000000000000000000000000000000000000
#000340:00000000000000000000000000000000000000000000000000000000005700000000000000000000000000000000000000000000000000000056000000000000
#001380:000000000000000000000000550000550000000000000000000000000000000000000000000000000000000000000000000000000000000000000000000000000000000055005500000000000000000000000000000000000000000000000000000055000055000000000000000000000000000000000000000000000000000000000000000000000000000000000000000000000055005500000000000000000000000000000000000000000000000000000000000000000000000000000000
#001360:000000000000000000000000005500000000000000000000000000000000000000000000000000000000000000000000000000000000000000000000000000000000000000000000000000000000000000000000000000000000000000000000000000550000000000000000000000000000000000000000000000000000000000000000000000000000000000000000000000000000000000000000000000000000000000000000000000000000000000000000000000000000000000000000
#001390:000000000000005500000000000000000000000000000000000000000000000000000000000000000000000000000000000055000000000000000000000000000000000000000000000000000000000000000000000000000000000000000000
#001340:00000000000000000000000000000000000000000000005600000000000000000000000000000000000000000000000000005600000000000000000000000000
#002380:25
#002341:140054000000000000000000000000000000000000000000000000000000000000000000000000000054000054000000000000000000000000000000000000000000000000000000540000540000000000000000000000000000000000000000000000000000000000000000000000000000000000000000000054000054000000000000000000000000000000000000000000000000000000000000005400005400000000000000000000000000000000000000000000000000000000000000
#002321:0054000000000000000000000000000000000000000000000000000054000000000000000000000000000000000000000000000000000000000000000000000000000000000000000000000000000000000054000000000000000000000000000000000000000000000000000000000000000000000000000000000000000000
#002361:000000000000000000000000000000000000000000000000000000000000000000000000000000000000005400000000000000000000000000000000000000000000000000000000000000000000000000000000000000000000000000000000000000000000000000000000000000000000000000000000000000005400000000000000000000000000000000000000000000000000000000000000000000000000000000000000000000000000000000000000000000000000000000000000
#002331:000000000000000000000000000000000000000000000000000000000000000000000000000000000000000000000000000000000000000000000000000000000000000000000000005400000000000000000000000000000000000000000000000000000000000000000000000000000000000000000000000000000000000000000000000000000000000000000000000000000000000000000000000054000000000000000000000000000000000000000000000000000000000000000000
#002351:000000000000000000000000000000000000000000000000000000000000000000000000000000000000000000000000000000000000000000000000000000000000000000000000000054000000000000000000000000000000000000000000000000000000000000000000000000000000000000000000000000000000000000000000000000000000000000000000000000000000000000000000000000540000000000000000000000000000000000000000000000000000000000000000
#003341:000000000000000000000000000000005400005400000000000000000000000000000000000000000000540000540000000000000000000000000000000000000000000000000000000000000000000000000000000000000000000000000000000000000000000000000000540000540000000000000000000000000000000000000000000000000054000054000000000000000000000000000000000000000000000000000000000000000000000000000000000000000000000000000000
#003321:000000000000000000000000000000000054000000000000000000000000000000000000000000000000000000000000000000000000000000000000000000000000000000000000000000000000000000000000000000000000000000000000000000000000000000000000005400000000000000000000000000000000000000000000000000000000000000000000000000000000000000000000000000000000000000000000000000000000000000000000000000000000000000000000
#003361:0000005400000000000000000000000000000000000000000000000000000000
#003331:000000000000000000000000000000000000000000000000000000000000000000000000000000000000005400000000000000000000000000000000000000000000000000000000000000000000000000000000000000000000000000000000000000000000000000000000000000000000000000000000000000000000000000000000000000000000540000000000000000000000000000000000000000000000000000000000000000000000000000000000000000000000000000000000
#003351:000000000000000000000000000000000000000000000000000000000000000000000000000000000000000054000000000000000000000000000000000000000000000000000000000000000000000000000000000000000000000000000000000000000000000000000000000054000000000000000000000000000000000000000000000000000000005400000000000000000000000000000000000000000000000000000000000000000000000000000000000000000000000000000000
#004341:24
#004380:140000000000000000000000000000000000000000000000000000000000000000000000000000000000000000000000000000000000000000000000000000000000000000000000540000540000000000000000000000000000000000000000000000000000005400540000000000000000000000000000000000000000000000000000000000000000000000000000000000000000000000000000000000000000540000540000000000000000000000000000000000000000005400005400
#004360:000000000000000000000000000000000000000000000000000000000000000000000000000000000000000000000000000000000000000000000000000000000000000000000000005400000000000000000000000000000000000000000000000000000000000000000000000000000000000000000000000000000000000000000000000000000000000000000000000000000000000000000000000000000000005400000000000000000000000000000000000000000000000000000000
#004390:000000000000000000000000000000000000000000000000000000000000000000000000000000000000000000000000000000000000000000000000000000000000000000000000000054000000000000000000000000000000000000000000000000000000000000000000000000000000000000000000000000000000000000000000000000000000000000000000000000000000000000000000000000000000000054000000000000000000000000000000000000000000000000540000
#004370:000000000000000000000000000000000000000000000000000054000000000000000000000000000000000000000054
#005380:000000000000000000000000000000000000000000000000000000000000000000000000000000000000000000000000000000000000540000540000000000000000000000000000000000000000000000000000540000540000000000000000000000000000000000000000000000000000000000000000000000000000000000000054000054000000000000000000000000000000000000000000000000000000540000540000000000000000000000000000000000000000000000000000
#005360:000000000000000000000000000000000000000000000000000000000000000000000000000000000000000000000000000000000000005400000000000000000000000000000000000000000000000000000000000000000000000000000000000000000000000000000000000000000000000000000000000000000000000000000000000000000000000000000000000000000000000000000000000000000000000000000000000000000000000000000000000000000000000000000000
#005390:000000000000000000000000000000000000000000000000000000000000000000000000000000000000000000000000000000000000000054000000000000000000000000000000000000000000000000000000000054000000000000000000000000000000000000000000000000000000000000000000000000000000000000000000005400000000000000000000000000000000000000000000000000000000000054000000000000000000000000000000000000000000000000000000
#005370:000000000000000000000000000000000000000000000000000000000000000000000000000000000000000000000000000000000000000000000000000000000000000000000000000000000000000000000000005400000000000000000000000000000000000000000000000000000000000000000000000000000000000000000000540000000000000000000000000000000000000000000000000000000000005400000000000000000000000000000000000000000000000000000000
#006380:24
#006341:140000000000000000000000000000000000000000000000540000540000000000000000000000000000000000000000000000000000000000000000000000000000000000000000000000000000000000000000000000000000000000000000000000000000000000000000000000000000005400005400000000000000000000000000000000000000000000000000000000000000000000000000000000000000000000000000000000000000000000000000000000000000000000000000
#006331:000000000000000000000000000000000000000000000000005400000000000000000000000000000000000000000000000000000000000000000000000000000000000000000000000000000000000000000000000000000000000000000000000000000000000000000000000000000000000054000000000000000000000000000000000000000000000000000000000000000000000000000000000000000000000000000000000000000000000000000000000000000000000000000000
#006351:000000000000000000000000000000000000000000000000000054000000000000000000000000000000000000000000000000000000000000000000000000000000000000000000000000000000000000000000000000000000000000000000000000000000000000000000000000000000000000540000000000000000000000000000000000000000000000000000000000000000000000000000000000000000000000000000000000000000000000000000000000000000000000000000
#007341:000000005400005400000000000000000000000000000000000000000000000000000000000000000000000000000000000000000000000000000000000000000000000000000000000000000000000000000000000054000054000000000000540000000000000000000000000000000000000000000000000000000000000000000000000000000000000000000000000000000000000000000000000000000000000000000000000000000000000000000000000000000000000000000000
#007331:000000000054000000000000000000000000000000000000000000000000000000000000000000000000000000000000000000000000000000000000000000000000000000000000000000000000000000000000000000540000000000000000000000000000000000000000000000000000000000000000000000000000000000000000000000000000000000000000000000000000000000000000000000000000000000000000000000000000000000000000000000000000000000000000
#007351:000000540000000000000000000000000000000000000000000000000000000000000000000000000000000054000000000000000000000000000000000000000000000000000000000000000000000000000000000000000000000000000000
#010321:22
#010370:13
#0103b0:00000023000000000000000000000000
#010360:0000001300000000
#010320:0000000000000023
#012360:13
#012320:0023000000000000
#012320:00000013000000000000000000000000
#012360:00000000002300000000000000000000
#012360:0000001300003300
#012320:0000000000330023
#013360:00000013000000000000000000000000
#013320:0000002300000000
#0143b0:0000001300000000
#014370:0000000000000023
#016320:00000013000000000000000000000000
#016360:0000002300000000
#0173b0:13
#017380:00000023000000000000000000000000
#018360:13
#018320:0023000000000000
#018370:0000001300000000
#0183b0:0000000000000023
#020370:13
#0203b0:0023000000000000
#0203b0:00000013000000000000000000000000
#020370:00000000002300000000000000000000
#020370:0000001300003300
#0203b0:0000000000330023
#021370:00000013000000000000000000000000
#0213b0:0000002300000000
#022350:00000000001300000000230000000000
#022381:0000001300230000
#0243b1:00000013000000000000000000000000
#024371:00000000003323000000000000000000
#0253b1:1300002300000000
#025381:00000033000000000000000000000000
#025320:1300002300000000
#025350:00000033000000000000000000000000
#025360:0000000000000013
#026320:00000023000000000000000000000000
#026371:00000013000000000000000000000000
#0263b1:0000002300000000
#026361:0000000000130000
#026321:0000000000000023
#027331:140000005400000000000000000000000000000000000000000000000000000000000000000000000000000000000000000000000000000000000000000000000000000000540000340000005400000000000000000000000000000000000000000000000000000000000000000000000000000000000000000000000000000000000000000000000000540000000000240000000000000000000000000000000000000000000000000000000000000000000000000000000000000000000000000000000000000000000000000000000000000000000000000000000000000000000000000000000000000000000000000000000000000000000000000000000000000000000000000000000000000000000000000000000000000000000000000000000000000000000000000000000000000000000000000000000000000000000000000000000000000000000000000000000000000000000000000000000000000000000000000000000000000000000000000000000000000000000000
#027341:005400000000000000000000000000000000000000000000000000000000000000000054000000000000000000000000000000000000000000000000000000000000000000005400000000000000000000000000000000000000000000000000000000000000000000000000000000000000000000000000000000000000000000000000000000000000000000000000000000000000000000000000000000000000000000000000000000000000000000000000000000000000000000000000
#027321:000000540000000000000000000000000000000000000000000000000000000000000000000000000000000000000000000000000000000000000000000000000000000000000000000054000000000000000000000000000000000000000000000000000000000000000000000000000000000000000000000000000000000000000000000000000000000000005400000000000000000000000000000000000000000000000000000000000000000000000000000000000000000000000000000000000000000000000000000000000000000000000000000000000000000000000000000000000000000000000000000000000000000000000000000000000000000000000000000000000000000000000000000000000000000000000000000000000000000000000000000000000000000000000000000000000000000000000000000000000000000000000000000000000000000000000000000000000000000000000000000000000000000000000000000000000000000000000000
#027391:000000000000000000000000000000000000000000000000000000000000000000000000000000000000000000000000000000000000000000000000000000000000000000000000000000000000000000000000000000000000000000000000000000000000000000000000000000000000000000000000000000000000000000000000000000000000000000000000000000000000000000000000000000000000000000000000000000000000000000000000000000000000000000000000140000005400000000000000000000000000000000000000000000000000000000000000000000000000000000000000000000000000000000000000000000000000000000540000340000005400000000000000000000000000000000000000000000000000000000000000000000000000000000000000000000000000000000000000000000000000540000000000240000000000000000000000000000000000000000000000000000000000000000000000000000000000000000000000
#0273a1:000000000000000000000000000000000000000000000000000000000000000000000000000000000000000000000000000000000000000000000000000000000000000000000000000000000000000000000000000000000000000000000000005400000000000000000000000000000000000000000000000000000000000000000054000000000000000000000000000000000000000000000000000000000000000000005400000000000000000000000000000000000000000000000000
#027381:000000000000000000000000000000000000000000000000000000000000000000000000000000000000000000000000000000000000000000000000000000000000000000000000000000000000000000000000000000000000000000000000000000000000000000000000000000000000000000000000000000000000000000000000000000000000000000000000000000000000000000000000000000000000000000000000000000000000000000000000000000000000000000000000000000540000000000000000000000000000000000000000000000000000000000000000000000000000000000000000000000000000000000000000000000000000000000000000000054000000000000000000000000000000000000000000000000000000000000000000000000000000000000000000000000000000000000000000000000000000000000005400000000000000000000000000000000000000000000000000000000000000000000000000000000000000000000000000
#028351:1300002300000000
#028321:00000033000000000000000000000000
#0283b0:00000013000000000000000000000000
#028380:0000002300000000
#028360:0000000000130000
#028320:0000000000000023
#029370:00000000000000001300002300000000
#029321:00000000000000001300002300000000
#029371:0000000000000013
#0303b1:00000023000000000000000000000000
#030360:00000013000000000000000000000000
#030320:0000002300000000
#030370:0000000000130000
#0303b0:0000000000000023
#031360:13
#031340:00000033000000000000000000000000
#031320:0000002300000000
#031370:0013
#031390:00000000000000000000003300000000
#0313b0:0000000000000023
#032350:1300000000000000000000000000005300000000000000000000000000000000
#032320:00000033000000000000000023000000
#032381:1300000000000000000000000000005300000000000000000000000000000000
#0323b1:00000033000000000000000023000000
#033321:1300000000000000000000000000005300000000000000000000000000000000
#033351:00000033000000000000000023000000
#0333b0:1300000000000000000000000000005300000000000000000000000000000000
#033380:00000033000000000000000023000000
#034320:1300002300000000
#034360:00000033000000000000000000000000
#0343b1:00000013000000000000000000000000
#034371:0000002300000000
#0353b1:1300002300000000
#035371:00000033000000000000000000000000
#035321:0013
#035361:00000000000000000000002300000000
#036381:1300002300000000
#0363b1:00000033000000000000000000000000
#036320:00000013000000000000000000000000
#036350:0000002300000000
#036370:0000000000130000
#0363b0:0000000000000023
#037360:00000000000000001300002300000000
#0373b1:00000000000000001300002300000000
#0383b1:1300002300000000
#038371:00000033000000000000000000000000
#038320:00000013000000000000000000000000
#038360:0000002300000000
#039320:1300002300000000
#039360:00000033000000000000000000000000
#0393b0:0000000013000023
#039370:00000000000000000000003300000000
#040320:13000033000033000000000000000000
#040350:0000000000230000
#0403b1:13000033000033000000000000000000
#040381:0000000000230000
#042321:13
#042351:00000023000000000000000000000000
#0423b0:00000013000000000000000000000000
#042380:0000002300000000
#042321:0000001300000000
#042361:0000000000230000
#044321:1333000023000000
#044351:00000033533333000000000000000000
#0443b0:1333000023000000
#044380:00000033533333000000000000000000
#0463b0:13
#046380:00003323000000000000000000000000
#046321:00000013000000000000000000000000
#046351:00000000003323000000000000000000
#0463b0:0000001300000000
#046370:0000000000230000
#048380:1323000000000000
#048350:0000000013230000
#0493b0:00000000000000000000000013333333
#050370:23
#050321:1353
#050341:0053005300530053
#050361:00530053
#051321:5353
#051341:0053005300530053
#051361:00530053
#052321:23
#0523b0:13
#052370:00230000
#053320:13
#053360:00230000
#054380:160000000000000000000000000000000000000000000000000000000000000000000000000000000000000000000000000000000000000000000000000000000000000000000000000000000000000000000000000000005500005500000000000000000000000000000000000000000000000000000000550000550000000000000000000000000000000000000000000000000000000000000000000000000000000000000000000000000000550000550000000000000000000000000000
#054350:000000000000000000000000000000000000000000000000000000000000000000000000000000000000000000000000000000000000000000000000000000000000000000000000000000000000000000000000000000000055000000000000000000000000000000000000000000000000000000000000000000000000000000000000000000000000000000000000000000000000000000000000000000000000000000000000000000000000005500000000000000000000000000000000
#054390:000000000000000000000000000000000000000000000000000000000000000000000000000000000000000000550000000000000000000000000000005500000000000000000000000000000000000000000000000000005500000000000000
#054360:000000000000000000000000000000000000000000000000000000000000000000000000000000000000000000000000000000000000000000000000000000000000000000000000000000000000000000000000000000000000000000000000000000000000000000000000000000000000000000000000005500000000000000000000000000000000000000000000000000000000000000000000000000000000000000000000000000000000000000000000000000000000000000000000
#055380:000000000000000000000000005500005500000000000000000000000000000000000000000000000000000000000000000000000000000000000000005400005400000000000000000000000000000000000000000000000000000054000054000000000000000000000000000000000000000000000000000000000000000000000000000000000000000000000000005400005400000000000000000000000000000000000000000000000000000000540000540000000000000000000000
#055360:000000000000005500000000000000000000000000000000000000000000005400000000000000000000000000000000000000000000000000000000000000000000000000000000005400000000000000000000000000000000000000000000
#055390:000000000000000000000000000000550000000000000000000000000000000000000000000000000000000000000000000000000000000000000000000000540000000000000000000000000000000000000000000000000000000000005400000000000000000000000000000000000000000000000000000000000000000000000000000000000000000000000000000000540000000000000000000000000000000000000000000000000000000000000054000000000000000000000000
#055370:000000000000000000000000000000000000000000000000000000000000000000000000000000000000000000000000000000000000000000000000000000000000000000000000000000000000000000000000000000000000000000540000000000000000000000000000000000000000000000000000000000000000000000000000000000000000000000000000000000000000000000000000000000000000000000000000000000000000000000005400000000000000000000000000
#056380:000000000000000000000000000000000000000000000000000000000000000000000000000000530000530000000000000000000000000000000000000000000000000000005300005300000000000000000000000000000000000000000000000000000000000000000000000000000000000000000000000000000053000053000000000000000000000000000000000000000000000000000000000000005300005300000000230000000000000000000000000000000000000000000000
#056370:000000000000000000000000000000000000000000000000000000000000000000000000000000005300000000000000000000000000000000000000000000000000000000000053000000000000000000000000000000000000000000000000000000000000000000000000000000000000000000000000000000000000530000000000000000000000000000000000000000000000000000000000000000000053000000000000000000000000000000000000000000000000000000000000
#056390:000000000000000000000000000000000000000000000000000000000000000000000000000000000053000000000000000000000000000000000000000000000000000000000000530000000000000000000000000000000000000000000000000000000000000000000000000000000000000000000000000000000000005300000000000000000000000000000000000000000000000000000000000000000000530000000000000000000000000000000000000000000000000000000000
