This file was generated by Ched 2.7.0.0.
#TITLE ""
#ARTIST ""
#DESIGNER ""
#DIFFICULTY 0
#PLAYLEVEL
#SONGID ""
#WAVE ""
#WAVEOFFSET 0
#JACKET ""
#REQUEST "ticks_per_beat 480"
#00002: 4
#BPM01: 114
#00008: 01
#TIL00: ""
#HISPEED 00
#MEASUREHS 00
#01312:0000000000130000
#01318:0000001300001300
#01315:00000013000000000000000000001300
#0131b:13
#01115:0000001300001300
#0111b:0000000000130000
#01118:00000013000000000000000000001300
#01112:13
#01418:1313001300330000
#01415:00000013001300000000000000000000
#0151a:14
#01516:00000014000000000000000000000000
#01512:0000001400000000
#0151b:0000000000130000
#01515:00000013
#01518:0000000000000013
#01716:00000014000000000000000000000000
#01712:1400000000130000
#01718:00000013
#01715:0000000000000013
#0171a:0000002400000000
#0231a:0000001400000000
#02316:00000014000000000000000000000000
#02318:0000000000130000
#02315:00000013
#0231b:0000000000000013
#02312:0000001400000000
#04118:1300000000000013
#04115:23000013
#0401b:13
#04012:23
#0431b:00000013
#04315:00000013000013000000000000001300
#04318:00001300001300000000000000000000
#04312:13
#04310:41
#04418:0000000000000013
#04412:00000013
#0441b:2313002300000000
#04415:00000023001300000000000000000000
#05218:0000001300001300
#0521b:00131300
#05215:0000000013000013
#0531b:0013000000001300
#05312:1300001313001300
#05318:13
#05315:00000013000000000000000000000000
#04918:00001300001300000000000000000000
#04919:00000013
#0491b:13
#04914:00000013
#04915:00000023000023000000000000000000
#04912:23
#02815:0000001300130000
#02818:23000013000000000000000000000000
#02812:13000013000000000000000000000000
#0281b:0000001300000000
#02112:00000014000000000000130000000000
#02118:00000013
#02115:0000000000000013
#0211a:14
#02116:0000001400000000
#02212:13003300003313000000000000000000
#0221b:13003300003313000000000000000000
#02215:00000013000000000000330033003300
#02218:00000013000000000000330033003300
#02518:0000000000000013
#02516:00000014000000000000000000000000
#0251a:1400002400000000
#02512:0000002400000000
#02618:00000013000000000000000000000000
#02615:1300000000000013
#02612:00000013000000000000000000000000
#0261b:23
#02610:41
#02918:0013
#02915:0000000000000013
#02912:0000001400000000
#0291a:14
#02916:00000014000000000000000000000000
#04815:0000000023000013
#04818:2300001300000000
#04812:0023000000000000
#0481b:0000000000230000
#04810:41
#0501b:13
#05018:0013
#05012:13
#05015:0013
#0101b:00000033003313000000000000000000
#01018:13
#01010:41
#01212:00003333003313000000000000000000
#01215:13
#0181b:1300001300000000
#01815:00001300001300000000000000000000
#01818:00000013000000000013000000000000
#01810:41
#0071a:0013
#01912:14
#0191a:00000014000000000000000000000000
#01916:0000001400000000
#0191b:0000000000130000
#01915:00000013
#01918:0000000000000013
#01615:1313001300330000
#01618:00000013001300000000000000001300
#02012:1300001300000000
#02018:00001300001300000000000000000000
#02015:00000013000000000013000000000000
#02412:1300001300000000
#0241b:0013000000000000
#02415:00000013000000000000130000000000
#02418:00000000001300000000000000000000
#03018:1300000000000013
#03015:00000013000000000000000000000000
#0301b:00000013000000000000000000000000
#03012:23
#0321b:00000013000000000000000000000000
#03218:1300000000000000000000000000001300000000000000000000000000000000
#03312:00000013000000000000000000000000
#03315:1300000000000000000000000000001300000000000000000000000000000000
#03318:0000000000000013
#03310:41
#03118:1300000000000013
#03115:0000001313000000
#02715:1300000000000013
#02718:0000001313000000
#03418:00000013000000001300000000001300
#03415:1300001300000000
#03412:00000013000000001300000000000000
#0341b:2300001300000000
#0341f:11
#03818:1300001300000000
#03815:00000013000000001300000000001300
#0381b:00000013000000001300000000000000
#03812:2300001300000000
#03715:0000000013000013
#0371a:0000001400000000
#03712:14
#03716:00000014000000000000000000000000
#03915:0000000023000013
#03918:2300001300000000
#03515:1300001300000000
#03518:0000000013000013
#03618:0000001300130000
#03615:23000013000000000000000000000000
#0361b:13000013000000000000000000000000
#03612:0000001300000000
#04612:0000000000130000
#04615:00000013
#04618:0000000000000013
#04617:00003313000000000000000000000000
#0461b:23000000003300000000000000000000
#04715:00001300001300000000000000001300
#04718:00000013000013000000000000000000
#0471b:13000013
#04712:0000000000130000
#04515:0000000000000013
#04512:2313002300000000
#04518:00000023001300000000000023000000
#04216:00000013000000000000000000000000
#04215:0000000000000013
#04218:00000013
#0421b:0000000000130000
#04212:23
#0421f:21
#0511a:000000000000000000000000130000000000000013000000000000001300000000000000130000000000000013000000000000130000000000130000000000130000000000130000000000130000000000130000000000130000000000130000
#05119:000000001300000013000000130000130000130000130000
#0511b:000000001300000000000000130000000000000013000000000000130000000000130000000000130000000000130000
#05113:000000000000000000000000130000000000000013000000000000001300000000000000130000000000000013000000000000130000000000130000000000130000000000130000000000130000000000130000000000130000000000130000
#05114:000000001300000013000000130000130000130000130000
#05112:000000001300000000000000130000000000000013000000000000130000000000130000000000130000000000130000
#00918:00000013
#00915:0000000000000013
#01552:0000001400000000
#0235a:0000001400000000
#02352:0000001400000000
#04158:13
#04155:13
#0405b:23
#04052:23
#0175a:0000001400000000
#04955:0000001300000000
#04959:00000053
#04954:00000063
#02855:0000001300530000
#0285b:0000001300000000
#01155:0000001300000000
#02958:0063
#04852:0013000000000000
#0485b:0000000000130000
#0505b:63
#05058:0023
#05052:53
#05055:0023
#0105b:0000002300000000
#01058:53
#01252:0000002300000000
#01255:63
#01458:0000005300000000
#0185b:0000005300000000
#01858:00000000000000000023000000000000
#0255a:0000001400000000
#02552:0000001400000000
#01358:0000001300000000
#01956:0000001400000000
#01655:0000006300000000
#02052:0000006300000000
#02055:00000000000000000023000000000000
#02156:0000001400000000
#02252:5300005300000000
#0225b:5300005300000000
#02258:00000053000000000000000000000000
#02255:00000053000000000000000000000000
#02452:0000006300000000
#02455:0000000000630000
#0325b:00000053000000000000000043000000
#03258:2300000000000000000000000000002300000000000000000000000000000000
#03352:00000063000000000000000033000000
#03355:2300000000000000000000000000002300000000000000000000000000000000
#03158:53
#03155:0063
#02755:63
#02758:0053
#03555:63
#03558:0053
#0345b:0000005300000000
#03455:0000005300000000
#03452:0023
#03458:0023
#03658:0000001300630000
#03652:0000001300000000
#03755:0053
#03858:0000006300000000
#03852:0000006300000000
#0385b:0023
#03855:0023
#04657:00000063000000000000000000000000
#0465b:6300001300000000
#04256:00000053000000000000000000000000
#04252:5300001300000000
#04355:0000001300000000
#04758:0000001300000000
#0515a:000000000000000000000000530000000000000053000000000000006300000000000000630000000000000063000000000000630000000000630000000000530000000000530000000000630000000000630000000000530000000000530000
#0515b:000000002300000000000000230000000000000023000000000000230000000000230000000000230000000000230000
#05159:000000002300000023000000230000230000230000230000
#05153:000000000000000000000000630000000000000063000000000000005300000000000000530000000000000053000000000000530000000000530000000000630000000000630000000000530000000000530000000000630000000000630000
#05154:000000002300000023000000230000230000230000230000
#05152:000000002300000000000000230000000000000023000000000000230000000000230000000000230000000000230000
#05259:13
#05254:13
#03958:53
#03955:0063
#0445b:0000005300000000
#04552:0000005300000000
#000390:140000000000000000000000000000000000000000000000000000000000000000000000000000000000000000000000000000000000000000000000000000540000000000000000540000000000000000000000000000000000000000000000540000000000000000540000000000000000000000000000000000000000000000000000000000000000000000000000000000000000000000000000000000000000000000000000000000005400000054000000000000000000000000000000000000000000000000000000000000000000000000000000000000000000000000000000000000000000000000540000000000000000540000000000000000000000000000000000000000000000000000000000000000000000000000000000000000000000000000000000000000000000000000000000000000000000000000000000000000000000000000000000000000005400000054000000000000000000000000000000000000000000000000000000000000000000000000000000
#000370:0000000000000000000000000000000000000000000055000000000000000000005400000000000000000000000000000000000000000000000000000000000000000000000000000000000000000000540000000000000000000000000000000000000000000000000000000000000000000000000000000000000000000000
#0003b0:0000000000000000000000000000000000000000000000530000000000000000000000000000000000000000000000000000000000000000000000000000000000000000000000000000000000000000000000000000000000000000000000000000000000000000000000000000000000000000000000000000000000000000
#0003a0:0000000000000000000000000000000000000000000000000000000000000000000054000000000000000000000000000000000000000000000000000000000000000000000000000000000000000000005400000000000000000000000000000000000000000000000000000000000000000000000000000000000000000000
#000360:00000000000000000000000000000000000000000000000000000000005500000000000000000000000000000000000000000000000000000054000000000000
#001390:000000000000000000000000540000540000000000000000000000000000000000000000000000000000000000000000000000000000000000000000000000000000000054005400000000000000000000000000000000000000000000000000000054000054000000000000000000000000000000000000000000000000000000000000000000000000000000000000240000000000000000000000000000000000000000000000000000000000000000000000000000000000000000000000
#001370:000000000000000000000000005400000000000000000000000000000000000000000000000000000000000000000000000000000000000000000000000000000000000000000000000000000000000000000000000000000000000000000000000000540000000000000000000000000000000000000000000000000000000000000000000000000000000000000000000000000000000000000000000000000000000000000000000000000000000000000000000000000000000000000000
#0013a0:000000000000005400000000000000000000000000000000000000000000000000000000000000000000000000000000000054000000000000000000000000000000000000000000000000000000000000000000000000000000000000000000
#001360:00000000000000000000000000000000000000000000005400000000000000000000000000000000000000000000000000000000000000000000000000000000
#002340:140054000000000000000000000000000000000000000000000000000000000000000000000000000054000054000000000000000000000000000000000000000000000000000000540000540000000000000000000000000000000000000000000000000000000000000000000000000000000000000000000054000054000000000000000000000000000000000000000000000000000000000000005400005400000000000000000000000000000000000000000000000000000000000000
#002320:0054000000000000000000000000000000000000000000000000000054000000000000000000000000000000000000000000000000000000000000000000000000000000000000000000000000000000000054000000000000000000000000000000000000000000000000000000000000000000000000000000000000000000
#002360:000000000000000000000000000000000000000000000000000000000000000000000000000000000000005400000000000000000000000000000000000000000000000000000000000000000000000000000000000000000000000000000000000000000000000000000000000000000000000000000000000000005400000000000000000000000000000000000000000000000000000000000000000000000000000000000000000000000000000000000000000000000000000000000000
#002330:000000000000000000000000000000000000000000000000000000000000000000000000000000000000000000000000000000000000000000000000000000000000000000000000005400000000000000000000000000000000000000000000000000000000000000000000000000000000000000000000000000000000000000000000000000000000000000000000000000000000000000000000000054000000000000000000000000000000000000000000000000000000000000000000
#002350:000000000000000000000000000000000000000000000000000000000000000000000000000000000000000000000000000000000000000000000000000000000000000000000000000054000000000000000000000000000000000000000000000000000000000000000000000000000000000000000000000000000000000000000000000000000000000000000000000000000000000000000000000000540000000000000000000000000000000000000000000000000000000000000000
#003340:000000000000000000000000000000005400005400000000000000000000000000000000000000000000540000540000000000000000000000000000000000000000000000000000000000000000000000000000000000000000000000000000000000000000000000000000540000540000000000000000000000000000000000000000000000000000000000000000240000000000000000000000000000000000000000000000000000000000000000000000000000000000000000000000
#003320:000000000000000000000000000000000054000000000000000000000000000000000000000000000000000000000000000000000000000000000000000000000000000000000000000000000000000000000000000000000000000000000000000000000000000000000000005400000000000000000000000000000000000000000000000000000000000000000000000000000000000000000000000000000000000000000000000000000000000000000000000000000000000000000000
#003360:0000005400000000000000000000000000000000000000000000000000000000
#003330:000000000000000000000000000000000000000000000000000000000000000000000000000000000000005400000000000000000000000000000000000000000000000000000000000000000000000000000000000000000000000000000000000000000000000000000000000000000000000000000000000000000000000000000000000000000000000000000000000000000000000000000000000000000000000000000000000000000000000000000000000000000000000000000000
#003350:000000000000000000000000000000000000000000005400000000000000000000000000000000000000000000000000000000000000005400000000000000000000000000000000000000000000000000000000000000000000000000000000
#004380:140000000000000000000000000000000000000000000000000000000000000000000000000000000000000000000000000000000000000000000000000000000000000000000000540000540000000000000000000000000000000000000000000000000000005400540000000000000000000000000000000000000000000000000000000000000000000000000000000000000000000000000000000000000000540000540000000000000000000000000000000000000000005400005400
#004360:000000000000000000000000000000000000000000000000000000000000000000000000000000000000000000000000000000000000000000000000000000000000000000000000005400000000000000000000000000000000000000000000000000000000000000000000000000000000000000000000000000000000000000000000000000000000000000000000000000000000000000000000000000000000005400000000000000000000000000000000000000000000000000000000
#004390:000000000000000000000000000000000000000000000000000000000000000000000000000000000000000000000000000000000000000000000000000000000000000000000000000054000000000000000000000000000000000000000000000000000000000000000000000000000000000000000000000000000000000000000000000000000000000000000000000000000000000000000000000000000000000054000000000000000000000000000000000000000000000000540000
#004370:000000000000000000000000000000000000000000000000000054000000000000000000000000000000000000000054
#005380:00000000000000000000000000000000000054540000000000000000545400000000000000000000000000000000000024000000000000000000000000000000
#005360:000000000000000000000000000000000000000000000000000000000000000000000000000000000000000000000000000000000000005400000000000000000000000000000000000000000000000000000000000000000000000000000000000000000000000000000000000000000000000000000000000000000000000000000000000000000000000000000000000000000000000000000000000000000000000000000000000000000000000000000000000000000000000000000000
#005390:000000000000000000000000000000000000000000000000000000005400000000000000000000000000005400000000000000000000000000000000000000000000000000000000000000000000000000000000000000000000000000000000
#005370:000000000000000000000000000000000000000000000000000000000000000000000000000000000000000000000000000000000000000000000000000000000000000000000000000000000000000000000000005400000000000000000000000000000000000000000000000000000000000000000000000000000000000000000000000000000000000000000000000000000000000000000000000000000000000000000000000000000000000000000000000000000000000000000000
#006340:140000000000000000000000000000000000000000000000540000540000000000000000000000000000000000000000000000000000000000000000000000000000000000000000000000000000000000000000000000000000000000000000000000000000000000000000000000000000005400005400000000000000000000000000000000000000000000000000000000000000000000000000000000000000000000000000000000000000000000000000000000000000000000000000
#006330:000000000000000000000000000000000000000000000000005400000000000000000000000000000000000000000000000000000000000000000000000000000000000000000000000000000000000000000000000000000000000000000000000000000000000000000000000000000000000054000000000000000000000000000000000000000000000000000000000000000000000000000000000000000000000000000000000000000000000000000000000000000000000000000000
#006350:000000000000000000000000000000000000000000000000000054000000000000000000000000000000000000000000000000000000000000000000000000000000000000000000000000000000000000000000000000000000000000000000000000000000000000000000000000000000000000540000000000000000000000000000000000000000000000000000000000000000000000000000000000000000000000000000000000000000000000000000000000000000000000000000
#007340:24
#007350:0000000000000013
#009320:0000000000230000
#010380:13000023
#0103b0:00000033003333000000000000000000
#012350:13000023
#012320:00003333003333000000000000000000
#014380:0000001300330000
#0143b0:00000023
#016350:0000001300330000
#016320:00000023
#0183b0:0000001300002300
#018380:00000000000000000053000000000000
#020320:0000001300002300
#020350:00000000000000000053000000000000
#022320:13003300003333000000000000000000
#022350:00000033000000000000330033003300
#023350:23
#0223b1:13003300003333000000000000000000
#022381:00000033000000000000330033003300
#023381:23
#024321:0000001300000023
#024351:0000000000330000
#0263b1:0000001300000000
#026381:0000000000230000
#026350:0000001300000000
#026320:0000000000230000
#027350:13
#027320:00000023000000000000000000000000
#027380:0013
#0273b0:00000000000000000000002300000000
#028350:0000000000130000
#028320:0000000000000023
#029380:0013
#0293b0:00000000000000000000002300000000
#030320:0000001300000000
#030350:0000000000230000
#030381:0000001300000000
#0303b1:0000000000230000
#031381:13
#0313b1:00000023000000000000000000000000
#031351:0013
#031321:00000000000000000000002300000000
#032381:1300000000000000000000000000005300000000000000000000000000000000
#0323b1:00000033000000000000000023000000
#033351:1300000000000000000000000000005300000000000000000000000000000000
#033321:00000033000000000000000023000000
#0343b1:0000001300230000
#034381:0053
#034350:0000001300230000
#034320:0053
#035350:13
#035320:00000023000000000000000000000000
#035380:0013
#0353b0:00000000000000000000002300000000
#036380:0000000000130000
#0363b0:0000000000000023
#037350:0013
#037320:00000000000000000000002300000000
#038320:0000001300230000
#038350:0053
#038381:0000001300230000
#0383b1:0053
#039381:13
#0393b1:00000023000000000000000000000000
#039351:0013
#039321:00000000000000000000002300000000
#040321:13
#040351:00000023
#0403b0:13
#040380:00000023
#042320:1300002300000000
#042360:00000033000000000000000000000000
#0443b0:0000001300000000
#044380:0000000000230000
#045320:0000001300000000
#045350:0000000000230000
#0463b0:13000000003323000000000000000000
#046370:00003333000000000000000000000000
#049390:00000013
#0503b0:33
#050380:0053
#0513b0:530000005300000000000000530000000000000053000000000000530000000000530000000000530000000000530000
#0513a0:000000000000000000000000530000000000000053000000000000005300000000000000530000000000000053000000000000530000000000530000000000530000000000530000000000530000000000530000000000530000000000530000
#051390:000000005300000053000000530000530000530000530000
#052390:23
#049341:00000013
#050321:33
#050351:0053
#051321:530000005300000000000000530000000000000053000000000000530000000000530000000000530000000000530000
#051331:000000000000000000000000530000000000000053000000000000005300000000000000530000000000000053000000000000530000000000530000000000530000000000530000000000530000000000530000000000530000000000530000
#051341:000000005300000053000000530000530000530000530000
#052341:23
#054381:16
#0563b1:5300000000000023
