This file was generated by Ched 2.7.0.0.
#TITLE ""
#ARTIST ""
#DESIGNER ""
#DIFFICULTY 0
#PLAYLEVEL
#SONGID ""
#WAVE ""
#WAVEOFFSET 0
#JACKET ""
#REQUEST "ticks_per_beat 480"
#00002: 4
#BPM01: 114
#00008: 01
#TIL00: ""
#HISPEED 00
#MEASUREHS 00
#01016:00000013001313000000000000000000
#0101c:00000012
#01018:0000000000000012
#0101b:1313001300000000
#01012:00001312
#01014:0000000000000012
#0101a:0000000000120000
#01010:41
#0111a:12
#01112:00001212000000000000001300000000
#01116:1200001200000000
#01115:0000000000130013
#0111b:0000000000130013
#01118:00000013
#01312:0000000000130000
#0131b:0000000000000013
#01318:1200001200131300
#01315:00000000000000000000001300000000
#01316:0000000000000013
#01314:12
#0131c:00001212000000000000000000000000
#01515:0000000000131300
#01518:00001200000000000000001300000000
#01512:12000012000000000000000000001300
#0151b:0000000000130000
#01514:0000001200000000
#0151c:12120000
#0151a:0000001200000000
#01516:00120000
#01517:0000000000000013
#01612:00001313000000000000130013000000
#0161b:13000000001313000000000013001300
#01616:1300000000000013
#01617:0000000000130000
#02215:00001300001313001300130013001300
#02212:00000013000000000000000000000000
#02216:13000000000000000013000000130000
#0221b:13
#02218:00000013002323001300130013001300
#02217:00000000000000130000001300000013
#0221a:00000000000000130000001300000013
#02213:00000000000000000013000000130000
#01412:13000000001313000000000012000000
#0141b:00001313000000000000000000000000
#01416:00000013000000140000001400000000
#01417:13
#01415:0000000000120012
#0141a:00000000000000000014000000000000
#01418:0000001414140000
#01419:0000000000000012
#0171b:00001313000000000000130000000000
#01717:1300002300000000
#01712:13000000001323000000000000000000
#01817:0000001300000000
#01814:0000000000120000
#01812:0013001300001200
#01816:0000000000000012
#0181c:00000012
#0181b:00000013001300001300000000000000
#0181a:0000000000000012
#01810:41
#01914:12
#01918:12120000
#0191c:0012000000000000
#01916:00000012000000000000000000000000
#01912:0000000000130000
#02012:00000013001300000000000000000000
#0201b:0013000000000000
#02014:00000033
#02019:00000033
#02015:0000000000330000
#02018:0000000000330000
#0231b:0000000000130013
#02312:00000012000000000000000013000000
#02316:00000000000000000000001300001300
#02315:0000000000130000
#02317:00000013
#0231c:00000012000000000000000000000000
#03217:1300001300000000
#0321b:00000013000000000013000000000000
#03219:0000000000000000001300000000001300000000000000000000000000000000
#03212:1300001300131300
#03215:00000013130000000000000000000000
#04114:1400000000000013
#0411b:00000013
#04116:00000013
#04119:0000000000000013
#04118:24
#04212:13000000001313000013000013000000
#0421b:00001313000000001300130000001300
#04217:2300001300001300
#04216:00000013000000000000130000001300
#0421f:21
#04312:13000000000013000013000000001300
#04316:00001313000000000000000013000000
#0431b:00000013000000001300000013000000
#04317:13000000001313000000130000000000
#04310:41
#0501b:00001313
#05018:00000000000000130000130000000000
#05015:0013
#05016:1414000000001300
#05014:0000000000000013
#05012:00000000250013000013000000000000
#0501a:14
#05019:0000250000000013
#05115:00000000000000130013000013000000
#0511b:00131313
#05112:1300001300130013
#05118:00000000000013000000130000130013
#05116:00000013130000000000000000000000
#05117:13
#0451b:00001300000013000013000023000000
#04515:0000000000000013
#04516:0013002300000000
#04512:23000023001300001300000023000000
#04519:00130013001300130000130000000000
#04518:00000000000000000000000000000013
#04514:0000000000130000
#04517:13130000
#0251b:1300002300000013
#02516:13000000001323000000000000001300
#02512:00001313000000000000000000000000
#02517:00000013000000000000000000000000
#0311b:13000000000000000000001300000000
#03112:00000013000000001300000000000000
#03116:13000000000013000000001300000000
#03117:00000013000000001300000000001300
#04916:14001414001414000000140000000000
#0491a:00000024000000001400000024000000
#04912:240000000000000000000000000000000000240000000000140000000000000034003400000000000000000000140000
#04914:00000000000000000000000000140000
#04918:0000000000000014
#0281b:0000000000130000
#02812:0000001300000013
#02817:00000013000000001300000000000000
#02816:13000013
#0281a:23
#03315:00000000000000000000000000000013
#03316:1300001300000000
#03312:00000013000000000013000000000000
#03314:0000000000000000001300000000001300000000000000000000000000000000
#0331b:1300001300131300
#03318:00000013130000000000000000001300
#03310:41
#02919:00000013000000000000000000000000
#02917:0000001313000013
#02914:00000013000000000000000000000000
#02912:0000001313000013
#02916:13000013
#0291b:13000013
#00918:0000000000130013
#00912:0000000000000013
#00915:00000013
#0091b:00000000000000000000001300000000
#0071c:0012
#00712:0000000000000012
#02112:0012000000130013
#02116:12120013
#0211b:00000013
#02118:00000012000000000000130000000000
#02117:00000000000000000000001300001300
#0211a:12
#0241b:00001313000000000000130013000000
#02417:13000000001313000000000000001300
#02416:00000013000000000000130000000000
#02412:1300001300001313
#02613:0000000000000013
#0261b:00000013000000000000130000000000
#02617:2300001300000000000000000000000000000000000000000000000000001300
#02616:0000000000000000001300001300000000000000000000000000000000000000
#02612:1313
#02610:41
#03715:0000000000000013
#03718:00000000000000000000000000000013
#03714:00000013000000000000000000000000
#03716:0000001313000000
#0371b:0000001313000000
#03717:13000013
#03712:13000013
#03719:00000013000000000000000000000000
#05316:13000000000014140000140000000000
#0531b:13130000
#05315:00000013000000000000000000000000
#0531a:000000000000000000000000000000000000000000000000140000000000000034003400000000240000000000000000
#05312:0000130014002426
#05318:00001300000000000000000000000026
#05215:13000000000000130000130000000000
#0521b:13000000000013000013000000000000
#05217:0013000000001300
#05212:00131313
#05219:0000130000000013
#05218:0013
#05214:0000000000000013
#0301b:1300000013000013
#03012:00000013000000000000130000000000
#03016:2300001300000000000000000000000000000000000000000000000000000000
#03017:0000000000000000001300001300000000000000000000000000000000000000
#0441b:0000001333000000001333000000000000000000130000000000000013000000
#04412:0000001333000000001333000000000000000000000000001300000000000000
#04419:00000000000000000000000000130013
#04414:00000000000000000000001300130000
#04417:00000013
#04416:000000000000000000000000000000000000000000000000000000000000000000000000141400000000000000000000000000000000000000000000000000000000000000000000141400000000000000000000000000000000000000000000000000000000000000000000000000000000000000000000130000000000000000000000000000000000000000000000000000000000000000000000000000000000000000000000000000000000000000000000000000000000000000000000
#04415:13
#04418:23
#0481b:13002300130000002300001300001300
#04812:23000013000013001300230013000000
#04817:00130000000013000000130000000000
#04816:00001300000000000013000000001300
#04810:41
#0341b:0000001300000000000013001300000000000000000000001300000000000000
#03416:0000000000000000001300000000000013000000000000000000000000000000
#03417:1300000000000013
#03412:23001313000000000000130000001300
#0341f:11
#03514:00000013000000000000001300000000
#03512:0000001313001300
#0351b:1300130000000013
#03519:00000013000000000000001300000000
#03517:0013000023000000
#03516:2300000000130000
#03916:0000001300000000000000000000000013000000000000000000000000000000
#0391b:0000001300000000130000000000000023000000000000001300000000000000
#03917:1300000000000000000000000000000000000013000000000000000000000000
#03918:0000001300000023
#03912:2300000000000000130000000000000000000013000000001300000000000000
#03915:0000002300000013
#01217:00000013001313000000000000000000
#01212:1313001300001200
#01216:0000000000000012
#0121c:00000012
#0121a:0000000000000012
#01214:0000000000120000
#0121b:0013
#03612:2300000013130000
#0361b:00000000001313000000000013001300
#03616:00001313000000001300000000000000
#03617:13000013
#03812:0000001300000000000013001300000000000000000000001300000000000000
#03817:0000000000000000001300000000000013000000000000000000000000000000
#03816:1300000000000013
#0381b:23001313000000000000130000001300
#04612:00001313000000001300130000001300
#04616:2300001300001300
#04617:00000013000000000000130000001300
#0461b:13000000001313000013000013000000
#02717:1300001300000000
#0271b:00000013000000000000000000000000
#02716:0000000013000013
#02712:00000000000000000000001300000000
#02713:23
#0271a:0023
#04012:00120000000000120000000012000000
#04014:00000012000000000012000000000000
#04016:00000000001200000000001200001400
#0401a:0012000012000000
#04018:0000120000120000
#0401c:2200002200002200
#0471b:13000000000013000013000000001300
#04717:00001313000000000000000013000000
#04712:00000013000000001300000013000000
#04716:13000000001313000000130000000000
#05414:18
#01652:00000053000000000000000000000000
#0165b:6300001300000000
#01656:0000001300000000
#01857:0000005300000000
#0185b:0023
#04154:14
#04158:14
#04252:5300005300000000
#0425b:00000063000000000000000000000000
#04257:1300001300000000
#04256:00000013000000000000000000000000
#04352:0000006300000000
#0435b:00000053
#04357:1300001300000000
#04356:00000013000000000000000000000000
#0255b:6300004300000063
#02557:00000063000000000000000000000000
#02556:0000003300000000
#0315b:63
#03152:0053
#03156:00000000000000000000005300000000
#03157:00000063000000000000000000000000
#0285b:0000001300530000
#02856:63000023
#02857:00000053000000002300000000000000
#02852:00000013000053000000000000000000
#0285a:13
#0175b:00000063000000000000000000000000
#01752:5300001300000000
#01757:0000001300000000
#0075c:0062
#00752:0000000000000052
#02255:0000005363536353
#02258:0000005363536353
#02257:00000000000000230000002300000023
#0225a:00000000000000230000002300000023
#02256:00000000000000000023000000230000
#02253:00000000000000000023000000230000
#01056:0000006300000000
#01052:0023
#02952:0000000023000053
#02957:0023
#0325b:00000023000000000023000000000000
#03259:0000000000000000006300000000006300000000000000000000000000000000
#03258:00000013
#03257:6300002300000000
#03356:6300002300000000
#03352:00000023000000000023000000000000
#03354:0000000000000000005300000000005300000000000000000000000000000000
#03355:00000013
#0265b:00000063000043000000630000000000
#02657:1300002300000000000000000000000000000000000000000000000000000000
#02656:0000000000000000002300005300000000000000000000000000000000000000
#02652:53000033000000002300000000000000
#03052:00000053000033000000530000000000
#03056:1300002300000000000000000000000000000000000000000000000000000000
#03057:0000000000000000002300006300000000000000000000000000000000000000
#0305b:63000043000000002300000000000000
#0535a:0044
#05352:0034
#05356:23
#01554:0000001200000000
#0155a:0000001200000000
#0345b:0000002300000000000000005300000000000000000000000000000000000000
#03456:0000000000000000002300000000000023000000000000000000000000000000
#03452:33000053000033000000530000000000
#03457:53000033000000000000000000000000
#03557:0023000000000000
#0355b:63230000
#03559:00000063000000000000000000000000
#03554:00000000000000000000005300000000
#03552:00005323
#03556:0000000000230000
#03956:0000002300000000000000000000000053000000000000000000000000000000
#03952:6300000000000000000000000000000000000023000000000000000000000000
#0395b:0000002300000000000000000000000053000000000000000000000000000000
#03957:6300000000000000000000000000000000000023000000000000000000000000
#0115c:0000001200000000
#01156:0000001200000000
#01456:00000000000000240000002400000000
#0145a:00000000000000000024000000000000
#01458:0000006464640000
#01358:0000001200000000
#01352:0000001200000000
#01257:0000005300000000
#0125b:0023
#01952:0000001200000000
#0195c:0000001200000000
#01956:00000062000000000000000000000000
#01958:00620000
#02158:00000052000000000000000000000000
#02156:00520000
#0215c:0000001200000000
#02152:0000001200000000
#02456:00000053000000000000000000000000
#02457:0000004300000000
#02452:5300003300000000
#03652:1300001300630000
#0365b:00000013000063000000000000000000
#03656:00000063000000002300000000000000
#03657:53000023
#0375b:0023
#03756:0023
#03852:0000002300000000000000006300000000000000000000000000000000000000
#03857:0000000000000000002300000000000023000000000000000000000000000000
#0385b:43000063000043000000630000000000
#03856:63000043000000000000000000000000
#04459:00000000000000000000000000530063
#04456:000000000000000000000000000000000000000000000000000000000000000000000000546400000000000000000000000000000000000000000000000000000000000000000000645400000000000000000000000000000000000000000000000000000000000000000000000000000000000000000000230000000000000000000000000000000000000000000000000000000000000000000000000000000000000000000000000000000000000000000000000000000000000000000000
#0445b:0000002300000000002300000000000000000000000000000000000023000000
#04458:53
#04454:00000000000000000000006300630000
#04452:0000002300000000002300000000000000000000000000002300000000000000
#04455:63
#04457:00000023
#02356:0000001200000000
#02352:00000062000000000000000000000000
#0235c:00000052000000000000000000000000
#02358:0000001200000000
#0465b:6300006300000000
#04652:00000053000000000000000000000000
#04656:3300003300000000
#04657:00000043000000000000000000000000
#0505a:44
#05059:00450000
#05052:00350000
#05056:64
#0495a:00000014000000000000000000000000
#04952:1400001400000000
#04857:00230000000000000000530033000000
#04852:00000023000000005300330000000000
#0485b:63004300000000000000002300000000
#04856:00006300430000000023000000000000
#05157:23
#0475b:0000005300000000
#04752:00000063
#04756:3300003300000000
#04757:00000043000000000000000000000000
#04557:23230000
#04559:00530053005300530000000000000000
#0455b:0023002300000000
#05454:58
#05255:13
#000390:140000000000000000000000000000000000000000000000000000000000000000000000000000000000000000000000000000000000000000000000000000540000000000000000540000000000000000000000000000000000000000000000540000000000000000540000000000000000000000000000000000000000000000000000000000000000000000000000000000000000000000000000000000000000000000000000000000005400000054000000000000000000000000000000000000000000000000000000000000000000000000000000000000000000000000000000000000000000000000540000000000000000540000000000000000000000000000000000000000000000000000000000000000000000000000000000000000000000000000000000000000000000000000000000000000000000000000000000000000000000000000000000000000005400000054000000000000000000000000000000000000000000000000000000000000000000000000000000
#000370:0000000000000000000000000000000000000000000055000000000000000000005400000000000000000000000000000000000000000000000000000000000000000000000000000000000000000000540000000000000000000000000000000000000000000000000000000000000000000000000000000000000000000000
#0003b0:0000000000000000000000000000000000000000000000530000000000000000000000000000000000000000000000000000000000000000000000000000000000000000000000000000000000000000000000000000000000000000000000000000000000000000000000000000000000000000000000000000000000000000
#0003a0:0000000000000000000000000000000000000000000000000000000000000000000054000000000000000000000000000000000000000000000000000000000000000000000000000000000000000000005400000000000000000000000000000000000000000000000000000000000000000000000000000000000000000000
#000350:00000000000000000000000000000000000000000000000000000000005600000000000000000000000000000000000000000000000000000055000000000000
#001390:000000000000000000000000540000540000000000000000000000000000000000000000000000000000000000000000000000000000000000000000000000000000000054005400000000000000000000000000000000000000000000000000000054000054000000000000000000000000000000000000000000000000000000000000000000000000000000000000000000000054005400000000000000000000000000000000000000000000000000000000000000000000000000000000
#001370:000000000000000000000000005400000000000000000000000000000000000000000000000000000000000000000000000000000000000000000000000000000000000000000000000000000000000000000000000000000000000000000000000000540000000000000000000000000000000000000000000000000000000000000000000000000000000000000000000000000000000000000000000000000000000000000000000000000000000000000000000000000000000000000000
#0013a0:000000000000005400000000000000000000000000000000000000000000000000000000000000000000000000000000000054000000000000000000000000000000000000000000000000000000000000000000000000000000000000000000
#001350:00000000000000000000000000000000000000000000005500000000000000000000000000000000000000000000000000005500000000000000000000000000
#002390:24
#002351:140054000000000000000000000000000000000000000000000000000000000000000000000000000054000054000000000000000000000000000000000000000000000000000000540000540000000000000000000000000000000000000000000000000000000000000000000000000000000000000000000054000054000000000000000000000000000000000000000000000000000000000000005400005400000000000000000000000000000000000000000000000000000000000000
#002331:0053000000000000000000000000000000000000000000000000000054000000000000000000000000000000000000000000000000000000000000000000000000000000000000000000000000000000000054000000000000000000000000000000000000000000000000000000000000000000000000000000000000000000
#002371:000000000000000000000000000000000000000000000000000000000000000000000000000000000000005400000000000000000000000000000000000000000000000000000000000000000000000000000000000000000000000000000000000000000000000000000000000000000000000000000000000000005400000000000000000000000000000000000000000000000000000000000000000000000000000000000000000000000000000000000000000000000000000000000000
#002341:000000000000000000000000000000000000000000000000000000000000000000000000000000000000000000000000000000000000000000000000000000000000000000000000005400000000000000000000000000000000000000000000000000000000000000000000000000000000000000000000000000000000000000000000000000000000000000000000000000000000000000000000000054000000000000000000000000000000000000000000000000000000000000000000
#002361:000000000000000000000000000000000000000000000000000000000000000000000000000000000000000000000000000000000000000000000000000000000000000000000000000054000000000000000000000000000000000000000000000000000000000000000000000000000000000000000000000000000000000000000000000000000000000000000000000000000000000000000000000000540000000000000000000000000000000000000000000000000000000000000000
#003351:000000000000000000000000000000005400005400000000000000000000000000000000000000000000540000540000000000000000000000000000000000000000000000000000000000000000000000000000000000000000000000000000000000000000000000000000540000540000000000000000000000000000000000000000000000000054000054000000000000000000000000000000000000000000000000000000000000000000000000000000000000000000000000000000
#003331:000000000000000000000000000000000054000000000000000000000000000000000000000000000000000000000000000000000000000000000000000000000000000000000000000000000000000000000000000000000000000000000000000000000000000000000000005400000000000000000000000000000000000000000000000000000000000000000000000000000000000000000000000000000000000000000000000000000000000000000000000000000000000000000000
#003371:0000005400000000000000000000000000000000000000000000000000000000
#003341:000000000000000000000000000000000000000000000000000000000000000000000000000000000000005400000000000000000000000000000000000000000000000000000000000000000000000000000000000000000000000000000000000000000000000000000000000000000000000000000000000000000000000000000000000000000000540000000000000000000000000000000000000000000000000000000000000000000000000000000000000000000000000000000000
#003361:000000000000000000000000000000000000000000000000000000000000000000000000000000000000000054000000000000000000000000000000000000000000000000000000000000000000000000000000000000000000000000000000000000000000000000000000000054000000000000000000000000000000000000000000000000000000005400000000000000000000000000000000000000000000000000000000000000000000000000000000000000000000000000000000
#004351:24
#004390:130000000000000000000000000000000000000000000000000000000000000000000000000000000000000000000000000000000000000000000000000000000000000000000000530000530000000000000000000000000000000000000000000000000000005300530000000000000000000000000000000000000000000000000000000000000000000000000000000000000000000000000000000000000000530000530000000000000000000000000000000000000000005300005300
#004370:000000000000000000000000000000000000000000000000000000000000000000000000000000000000000000000000000000000000000000000000000000000000000000000000005300000000000000000000000000000000000000000000000000000000000000000000000000000000000000000000000000000000000000000000000000000000000000000000000000000000000000000000000000000000005300000000000000000000000000000000000000000000000000000000
#0043a0:000000000000000000000000000000000000000000000000000000000000000000000000000000000000000000000000000000000000000000000000000000000000000000000000000053000000000000000000000000000000000000000000000000000000000000000000000000000000000000000000000000000000000000000000000000000000000000000000000000000000000000000000000000000000000053000000000000000000000000000000000000000000000000530000
#004380:000000000000000000000000000000000000000000000000000053000000000000000000000000000000000000000053
#005390:000000000000000000000000000000000000000000000000000000000000000000000000000000000000000000000000000000000000530000530000000000000000000000000000000000000000000000000000530000530000000000000000000000000000000000000000000000000000000000000000000000000000000000000053000053000000000000000000000000000000000000000000000000000000530000530000000000000000000000000000000000000000000000000000
#005370:000000000000000000000000000000000000000000000000000000000000000000000000000000000000000000000000000000000000005300000000000000000000000000000000000000000000000000000000000000000000000000000000000000000000000000000000000000000000000000000000000000000000000000000000000000000000000000000000000000000000000000000000000000000000000000000000000000000000000000000000000000000000000000000000
#0053a0:000000000000000000000000000000000000000000000000000000000000000000000000000000000000000000000000000000000000000053000000000000000000000000000000000000000000000000000000000053000000000000000000000000000000000000000000000000000000000000000000000000000000000000000000005300000000000000000000000000000000000000000000000000000000000053000000000000000000000000000000000000000000000000000000
#005380:000000000000000000000000000000000000000000000000000000000000000000000000000000000000000000000000000000000000000000000000000000000000000000000000000000000000000000000000005300000000000000000000000000000000000000000000000000000000000000000000000000000000000000000000530000000000000000000000000000000000000000000000000000000000005300000000000000000000000000000000000000000000000000000000
#006390:23
#006361:130000000000000000000000000000000000000000000000530000530000000000000000000000000000000000000000000000000000000000000000000000000000000000000000000000000000000000000000000000000000000000000000000000000000000000000000000000000000005300005300000000000000000000000000000000000000000000000000000000000000000000000000000000000000000000000000000000000000000000000000000000000000000000000000
#006351:000000000000000000000000000000000000000000000000005300000000000000000000000000000000000000000000000000000000000000000000000000000000000000000000000000000000000000000000000000000000000000000000000000000000000000000000000000000000000053000000000000000000000000000000000000000000000000000000000000000000000000000000000000000000000000000000000000000000000000000000000000000000000000000000
#006371:000000000000000000000000000000000000000000000000000053000000000000000000000000000000000000000000000000000000000000000000000000000000000000000000000000000000000000000000000000000000000000000000000000000000000000000000000000000000000000530000000000000000000000000000000000000000000000000000000000000000000000000000000000000000000000000000000000000000000000000000000000000000000000000000
#007361:000000005300005300000000000000000000000000000000000000000000000000000000000000000000000000000000000000000000000000000000000000000000000000000000000000000000000000000000000053000053000000000000230000000000000000000000000000000000000000000000000000000000000000000000000000000000000000000000000000000000000000000000000000000000000000000000000000000000000000000000000000000000000000000000
#007351:000000000053000000000000000000000000000000000000000000000000000000000000000000000000000000000000000000000000000000000000000000000000000000000000000000000000000000000000000000530000000000000000000000000000000000000000000000000000000000000000000000000000000000000000000000000000000000000000000000000000000000000000000000000000000000000000000000000000000000000000000000000000000000000000
#007371:000000530000000000000000000000000000000000000000000000000000000000000000000000000000000053000000000000000000000000000000000000000000000000000000000000000000000000000000000000000000000000000000
#0073c0:0012
#007380:000000000000000000000000000000000000000000000000000000000000000000000000000000000000000000000000000000000000000000000000000000000000000000000000000000000000000000000000000000000000000000000000000000000000000000000000000000000000000000000000000000000000000000000000000000000000005200005200000000000000000000000000000000000000000000000000220000000000000000000000000000000000000000000000
#007370:000000000000000000000000000000000000000000000000000000000000000000000052000000000000000000000000
#007390:00000000000000000000000000000000000000000000000000000000000000000000000000000000000000000000005200000000000000000000000000000000
#007321:0000000000000012
#008361:000000000000000000520000520000000000000000000000000000000000000000000000000000000000000000000000000000000000000000000000000000000000005200005200000000000000000000000000000000000000000000000000000052000052000000000000000000000000000000000000000000000000000000000000000000000000000000000000005200005200000000000000000000000000000000000000000000000000000052000052000000000000000000000000
#008341:000000000052000000000000000000000000000000000000000000000000000000005200000000000000000000000000000000000000000000000000000000000000000000000000005200000000000000000000000000000000000000000000
#008371:000000000000000000000052000000000000000000000000000000000000000000000000000000000000000000000000000000000000000000000000000000000000000000520000000000000000000000000000000000000000000000000000000000005200000000000000000000000000000000000000000000000000000000000000000000000000000000000000000000520000000000000000000000000000000000000000000000000000000000005200000000000000000000000000
#008351:00000000000000000000000000000000000000000000000000000000000000000052000000000000000000000000000000000000000000000000005200000000
#009361:000000000000000000000000000000000000000000000000000000000000005200520000000000000000000000000000000000000000000000000000005200520000000000000000000000000000000000000000000000000000000000000000000000000000000000000000000000000000000000000000220000000000000000000000000000000000000000000000000000000000000000000000000000000000000000000000000000000000000000000000000000000000000000000000
#009351:000000000000000000000000000000005200000000000000000000000000005200000000000000000000000000000000000000000000000000000000000000000000000000000000000000000000000000000000000000000000000000000000
#010321:13
#010361:0023000000000000
#0103b1:00000013002300000000000000000000
#010361:0000001300230000
#010321:0053
#011381:00000012000000000000000000000000
#0113c1:0000002200000000
#0123b1:13
#012371:0023000000000000
#012321:00000013002300000000000000000000
#012371:0000001300230000
#0123b1:0053
#013361:00000012000000000000000000000000
#013321:0000002200000000
#014381:0000001454542400
#014361:00000000000000540000005400000000
#0143a1:00000000000000000054000000000000
#0163b1:13
#016371:00005323000000000000000000000000
#016320:00000013000000000000000000000000
#016360:00000000005323000000000000000000
#017320:13
#017360:00005323000000000000000000000000
#0173b1:00000013000000000000000000000000
#017371:00000000005323000000000000000000
#017351:0000000000132300
#017380:0000000000001323
#017321:0000000000000013
#018361:23
#0183b0:13
#018370:0023000000000000
#018360:00000013002300000000000000000000
#018370:0000001300230000
#0183b0:0053
#019360:00000012000000000000000000000000
#019320:0000002200000000
#019381:00120000
#0193c1:0000002200000000
#019381:0000000000132300
#019350:0000000000001323
#0193b1:0000000000000013
#020371:23
#020320:13
#020360:0023000000000000
#020370:00000013002300000000000000000000
#020320:0000001300000000
#020350:0000000000330000
#020390:00000033
#0203b0:0000000000000023
#0203b1:0000001300000000
#020381:0000000000330000
#020341:00000033
#020321:0000000000000023
#021381:00000012000000000000000000000000
#0213c1:0000002200000000
#021360:00120000
#021320:0000002200000000
#022380:0000001353333333
#0223a0:00000000000000530000005300000053
#022360:00000000000000000053000000530000
#023380:23
#022351:0000001353333333
#022371:00000000000000530000005300000053
#022331:00000000000000000053000000530000
#023351:23
#023321:00000012000000000000000000000000
#023361:0000002200000000
#0233c0:00000012000000000000000000000000
#023380:0000002200000000
#024320:13
#024360:0023000000000000
#024360:00000013000000000000000000000000
#024320:00000000002300000000000000000000
#0253b0:13
#025370:0023000000000000
#025370:00000013000000000000000000000000
#0253b0:00000000002300000000000000000000
#0253b0:0000000000000013
#026370:23
#026321:13000023000000000000000000000000
#026371:0000005300000000000000000000000000000000000000000000000000000000
#0263b0:00000013000023000000000000000000
#026360:0000000000000000005300000000000000000000000000000000000000000000
#026361:0000001300230000
#026321:0053
#0263b0:0000000000130000
#026370:0000000000000023
#027330:130000005300000000000000000000000000000000000000000000000000000000000000000000000000000000000000000000000000000000000000000000000000000000530000330000005300000000000000000000000000000000000000000000000000000000000000000000000000000000000000000000000000000000000000000000000000530000000000230000000000000000000000000000000000000000000000000000000000000000000000000000000000000000000000000000000000000000000000000000000000000000000000000000000000000000000000000000000000000000000000000000000000000000000000000000000000000000000000000000000000000000000000000000000000000000000000000000000000000000000000000000000000000000000000000000000000000000000000000000000000000000000000000000000000000000000000000000000000000000000000000000000000000000000000000000000000000000000000
#027340:005300000000000000000000000000000000000000000000000000000000000000000053000000000000000000000000000000000000000000000000000000000000000000005300000000000000000000000000000000000000000000000000000000000000000000000000000000000000000000000000000000000000000000000000000000000000000000000000000000000000000000000000000000000000000000000000000000000000000000000000000000000000000000000000
#027320:000000530000000000000000000000000000000000000000000000000000000000000000000000000000000000000000000000000000000000000000000000000000000000000000000053000000000000000000000000000000000000000000000000000000000000000000000000000000000000000000000000000000000000000000000000000000000000005300000000000000000000000000000000000000000000000000000000000000000000000000000000000000000000000000000000000000000000000000000000000000000000000000000000000000000000000000000000000000000000000000000000000000000000000000000000000000000000000000000000000000000000000000000000000000000000000000000000000000000000000000000000000000000000000000000000000000000000000000000000000000000000000000000000000000000000000000000000000000000000000000000000000000000000000000000000000000000000000000
#0273a0:000000000000000000000000000000000000000000000000000000000000000000000000000000000000000000000000000000000000000000000000000000000000000000000000000000000000000000000000000000000000000000000000000000000000000000000000000000000000000000000000000000000000000000000000000000000000000000000000000000000000000000000000000000000000000000000000000000000000000000000000000000000000000000000000130000005300000000000000000000000000000000000000000000000000000000000000000000000000000000000000000000000000000000000000000000000000000000530000330000005300000000000000000000000000000000000000000000000000000000000000000000000000000000000000000000000000000000000000000000000000530000000000230000000000000000000000000000000000000000000000000000000000000000000000000000000000000000000000
#0273b0:000000000000000000000000000000000000000000000000000000000000000000000000000000000000000000000000000000000000000000000000000000000000000000000000000000000000000000000000000000000000000000000000005300000000000000000000000000000000000000000000000000000000000000000053000000000000000000000000000000000000000000000000000000000000000000005300000000000000000000000000000000000000000000000000
#027390:000000000000000000000000000000000000000000000000000000000000000000000000000000000000000000000000000000000000000000000000000000000000000000000000000000000000000000000000000000000000000000000000000000000000000000000000000000000000000000000000000000000000000000000000000000000000000000000000000000000000000000000000000000000000000000000000000000000000000000000000000000000000000000000000000000530000000000000000000000000000000000000000000000000000000000000000000000000000000000000000000000000000000000000000000000000000000000000000000053000000000000000000000000000000000000000000000000000000000000000000000000000000000000000000000000000000000000000000000000000000000000005300000000000000000000000000000000000000000000000000000000000000000000000000000000000000000000000000
#028360:13
#028320:00530023000000000000000000000000
#028371:00000013000000000000000000000000
#0283b1:0000532300000000
#028320:0000001300230000
#028370:0053
#0283b1:0000000000130023
#028361:00000053
#029371:0013
#0293b1:00000000000000000000002300000000
#029320:0013
#029360:00000000000000000000002300000000
#029320:0000000000000013
#030360:23
#0303b1:13000023000000000000000000000000
#030361:0000005300000000000000000000000000000000000000000000000000000000
#030320:00000013000023000000000000000000
#030370:0000000000000000005300000000000000000000000000000000000000000000
#030371:0000001300230000
#0303b1:0053
#030320:0000000000130000
#030360:0000000000000023
#0313b0:1300002300000000
#031370:00000033000000000000000000000000
#031320:0000000013000023
#031360:00000000000000000000003300000000
#032370:1300005300000000
#0323b0:00000033000000000053000000000000
#032390:0000000000000000005300000000005300000000000000000000000000000000
#032380:0000000000532300
#033360:1300005300000000
#033320:00000033000000000053000000000000
#033340:0000000000000000005300000000005300000000000000000000000000000000
#033350:0000000000532300
#034370:13000023000000000000000000000000
#0343b0:0000005300000000000000000000000000000000000000000000000000000000
#034321:00000013000023000000000000000000
#034361:0000000000000000005300000000000000000000000000000000000000000000
#0343b0:0000001300230000
#034360:0053
#034321:0000000000130000
#034361:00000023
#0353b1:13530000
#035371:0053002300000000
#035391:00000033000000000000000000000000
#035321:00001353
#035361:0000000000530023
#035341:00000000000000000000003300000000
#036371:13
#0363b1:00530023000000000000000000000000
#036360:00000013000000000000000000000000
#036320:0000532300000000
#0363b1:0000001300230000
#036361:0053
#036320:0000000000130023
#036370:00000053
#037360:0013
#037320:00000000000000000000002300000000
#0373b1:0013
#037371:00000000000000000000002300000000
#038361:13000023000000000000000000000000
#038321:0000005300000000000000000000000000000000000000000000000000000000
#0383b0:00000013000023000000000000000000
#038370:0000000000000000005300000000000000000000000000000000000000000000
#038321:0000001300230000
#038371:0053
#0383b0:0000000000130000
#038370:00000023
#039320:13000023000000000000000000000000
#039360:0000005300000000000000000000000000000000000000000000000000000000
#039371:13000023000000000000000000000000
#0393b1:0000005300000000000000000000000000000000000000000000000000000000
#0393b1:00000000000000001300002300000000
#039371:0000000000000000000000000000000000000053000000000000000000000000
#039360:00000000000000001300002300000000
#039320:0000000000000000000000000000000000000053000000000000000000000000
#042320:13
#042360:0023000000000000
#0423b0:00000013000000000000000000000000
#042370:00000000002300000000000000000000
#042320:0000001300000000
#042360:0023
#043320:0000001300000000
#043360:0023
#0433b0:00000013
#043370:0000000000000023
#044380:13
#0443b0:0000005333000000005333000000000023000000000000000000000000000000
#044360:00000034000034000000000000000000
#044351:13
#044321:0000005333000000005333000000000023000000000000000000000000000000
#044361:000000000000000000000000000000000000000000000000000000000000000000000000005400000000000000000000000000000000000000000000000000000000000000000000005400000000000000000000000000000000000000000000000000000000000000000000000000000000000000000000000000000000000000000000000000000000000000000000000000000000000000000000000000000000000000000000000000000000000000000000000000000000000000000000
#044361:0000000000130023
#044341:00000000000000000000005300530000
#044321:00000033
#044370:00000013
#044390:00000000000000000000000000530053
#0443b0:0000000000000053
#045370:53532300
#045390:00530053005300530000000000000000
#0453b0:0053005300000000
#0463b0:13
#046370:0023000000000000
#046320:00000013000000000000000000000000
#046360:00000000002300000000000000000000
#0463b0:0000001300000000
#046370:0023
#0473b0:0000001300000000
#047370:0023
#047320:00000013
#047360:0000000000000023
#0483b0:1323000000000000
#048370:00330000000000000000000000000000
#048361:0013230000000000
#048321:00000033000000000000000000000000
#048321:0000000013230000
#048361:00000000000000000033000000000000
#048370:0000000000132300
#0483b0:00000000000000000000003300000000
#049320:000000000000000000000000000000143434000000000000
#049360:00000024
#050360:14
#050320:0024000000000000
#051370:13
#0513b0:00000023000000000000000000000000
#053360:13
#053320:0023000000000000
#0533a0:000000000000000000000000000000143434000000000000
#053360:00000024
#054340:180000000000000000000000000000000000000000000000000000000000000000000000000000000000000000000000000000000000000000000000000000000000000000000000000000000000000000000000000000000054000000000000000000000000000000000000000000000000000000000000005400000000000000000000000000000000000000000000000000000000000000000000000000000000000000000000000000000000005400000000000000000000000000000000
#054350:000000000000000056000000000000000000000000000000000000000000000000000000000000000000000000000000000000000000000000000000000000000000000000000000000000000000000000000000000000000000005400000000000000000000000000000000000000000000000000000000000000000000000000000000000000000000000000000000000000000000000000000000000000000000000000000000000000000000000000000000000000000000000000000000
#054360:000000000000000000000000000000000000000000000000000000000000000000000000000000000000000000000000000000000000000000000000000000000000000000000000000000000000000000000000000000005400000054000000000000000000000000000000000000000000000000000000540055540000000000000000000000000000000000000000000000000000000000000000000000000000000000000000000000000000540000540000000000000000000000000000
#054370:000000000000000000000000000000000000000000000000000000000000000000000000000000000000000000550000000000000000000000000000000000000000000000000000000000000000000000000000000000005400000000000000
#055360:000000000000000000000000005400005400000000000000000000000000000000000000000000000000000000000000000000000000000000000000005400005400000000000000000000000000000000000000000000000000000054000054000000000000000000000000000000000000000000000000000000000000000000000000000000000000000000000000000000000000000000000000000000000000000000000000000000000000000000005200000000000000000000000000
#055350:000000000000005400000000000000000000000000000000000000000000000000000000000000000000000000000000000000000000000000000000000000000000000000000000005300000000000000000000000000000000000000000000
#055380:000000000000000000000000000000530000000000000000000000000000000000000000000000000000000000000000000000000000000000000000000000530000000000000000000000000000000000000000000000000000000000005300000000000000000000000000000000000000000000000000000000000000000000000000000000000000000000000000000000000000000000000000000000000000000000000000000000000000000000000052000000000000000000000000
#055340:000000000000000000000000000000000000000000000000000000000000000000000000000000000000000000000000000000000000000000000000000053000000000000000000000000000000000000000000000000000000000000540000000000000000000000000000000000000000000000000000000000000000000000000000000000000000000000000000000000000000000000000000000000000000000000000000000000000000000000000000000000000000000000000000
#055370:000000000000000000000000000000000000000000000000000000000000000000000000000000000000000000000000000000000000000000000000000000000000000000000000000000000000000000000000000000000000000000000000000000000000000000000000000000000000000000000000000000000000000000000000000000000000000000000000005200535200000000000000000000000000000000000000000000000000000000520000520000000000000000000000
#056370:000000000000000000000000000000000000000000000000000000000000000000000000000000520000520000000000000000000000000000000000000000000000000000005200525200000000000000000000000000000000000000000000000000000000000000000000000000000000000000000000000000000052000052000000000000000000000000000000000000000000000000000000000000005200525200000000220000000000000000000000000000000000000000000000
#056360:000000000000000000000000000000000000000000000000000000000000000000000000000000005200000000000000000000000000000000000000000000000000000000000052000000000000000000000000000000000000000000000000000000000000000000000000000000000000000000000000000000000000520000000000000000000000000000000000000000000000000000000000000000000052000000000000000000000000000000000000000000000000000000000000
#056380:000000000000000000000000000000000000000000000000000000000000000000000000000000000052000000000000000000000000000000000000000000000000000000000000000000000000000000000000000000000000000000000000000000000000000000000000000000000000000000000000000000000000005200000000000000000000000000000000000000000000000000000000000000000000000000000000000000000000000000000000000000000000000000000000
