This file was generated by Ched 2.7.0.0.
#TITLE ""
#ARTIST ""
#DESIGNER ""
#DIFFICULTY 0
#PLAYLEVEL
#SONGID ""
#WAVE ""
#WAVEOFFSET 0
#JACKET ""
#REQUEST "ticks_per_beat 480"
#00002: 4
#BPM01: 114
#00008: 01
#TIL00: ""
#HISPEED 00
#MEASUREHS 00
#0101a:1414
#01010:41
#01214:1414
#01612:14
#0161a:0014
#01714:14
#01718:0014
#02714:1414
#0271a:0014
#01418:14
#01414:0014
#01812:1414
#01810:41
#02018:1414
#0241a:14
#02412:0014
#02518:14
#02514:0014
#02214:14
#02218:0014
#02918:1414
#02912:0014
#0351a:14
#03518:0014
#03514:14
#03512:0014
#03712:14
#03714:0014
#03718:14
#0371a:0014
#04212:00140000
#04218:2614
#04214:00000014
#0421f:21
#05012:14
#05014:0014
#05013:00140014
#05112:14
#05113:00140000
#03112:1414
#0311a:0014
#03914:14
#0391a:14
#03918:0014
#03912:0014
#04514:14
#04512:00140000
#04518:00000014
#04418:14
#0441a:00140000
#04414:00000014
#05212:00140000
#0521a:0014
#05214:00000014
#05218:14
#05318:14
#05312:00140000
#0531a:0014
#05314:00000014
#02814:1400003400000000
#03018:1400003400000000
#03214:0000000000000000000000000000001400000000000000000000000000000000
#03212:00000014000000000000000000000000
#04318:0014
#0431a:14
#04314:00140000
#04312:00000014
#04310:41
#0461a:00140000
#04614:0014
#04618:00000014
#04612:16
#04912:14
#04918:00000014
#0491a:00140000
#04914:0014
#04712:14
#04718:00140000
#04714:0014
#0471a:00000014
#03318:0000000000000000000000000000001400000000000000000000000000000000
#0331a:00000014000000000000000000000000
#03310:41
#04018:14
#0401a:0014
#04014:0014
#04012:14
#03414:2400001400000000
#03412:00000014000000000014000000000000
#0341f:11
#03618:1400001400000000
#0361a:00000014000000000014000000000000
#03812:1400001400000000
#03814:00000014000000000014000000000000
#04812:24140000
#0481a:00002414
#04818:0024000000000000
#04814:0000000000240000
#04810:41
#02618:2400003400000000
#02610:41
#05054:0024
#05053:00640054
#05052:24
#05152:24
#05153:00640000
#05154:0014
#04554:64
#04552:00240000
#04458:54
#0445a:00240000
#02658:54
#02854:54
#03254:0000000000000000000000000000002400000000000000000000000000000000
#03252:00000064000000000000000000000000
#03058:54
#04258:16
#03358:0000000000000000000000000000002400000000000000000000000000000000
#0335a:00000054000000000000000000000000
#04058:64
#0405a:0024
#04054:0024
#04052:64
#04158:14
#04152:14
#03454:6400006400000000
#03452:00000024000000000024000000000000
#03658:5400005400000000
#0365a:00000024000000000024000000000000
#03852:5400005400000000
#03854:00000024000000000024000000000000
#04652:16
#0003a0:14
#0013a0:0024
#002340:14
#003340:0024
#004380:14
#005380:0024
#006320:14
#007340:0000000034000034
#009320:0024
#0113a0:14
#011380:0024
#013340:14
#013320:0024
#015380:14
#0153a0:0024
#019320:14
#019340:0024
#021380:14
#0213a0:0024
#023340:14
#023320:0024
#026380:1400003400000000
#0263a0:00000024
#028340:1400003400000000
#028320:00000024
#030380:1400003400000000
#0303a0:00000024
#032320:14000034000000000000000024000000
#032340:0000000000000000000000000000005400000000000000000000000000000000
#0333a0:14000034000000000000000024000000
#033380:0000000000000000000000000000005400000000000000000000000000000000
#034340:1400003400002400
#034320:00000054000000000054000000000000
#036380:1400003400002400
#0363a0:00000054000000000054000000000000
#038320:1400003400002400
#038340:00000054000000000054000000000000
#040380:14
#0403a0:0054
#041380:24
#040321:14
#040341:0054
#041321:24
#044381:1424
#0443a1:00340000
#045341:1424
#045321:00340000
#050321:14
#050331:00540054
#050341:0054
#051321:54
#051331:00540000
#051341:0024
#054381:16
#056391:5400000000000024
