This file was generated by Ched 2.7.0.0.
#TITLE ""
#ARTIST ""
#DESIGNER ""
#DIFFICULTY 0
#PLAYLEVEL
#SONGID ""
#WAVE ""
#WAVEOFFSET 0
#JACKET ""
#REQUEST "ticks_per_beat 480"
#00002: 4
#BPM01: 137
#00008: 01
#TIL00: ""
#HISPEED 00
#MEASUREHS 00
#00119:14
#00213:14
#00319:14
#00413:14
#00918:14
#01014:14
#0111a:14
#01212:14
#01210:41
#01318:14
#01414:14
#0151a:14
#01612:14
#02518:14
#02618:14
#02714:14
#02814:14
#0291a:14
#0301a:14
#03112:14
#03212:14
#03312:0016
#03318:26
#0331f:21
#03512:16
#03518:0016
#03718:14
#03814:14
#0391a:14
#04012:14
#04112:0016
#04118:26
#04110:41
#04218:16
#04212:0016
#04518:14
#04614:14
#0471a:14
#0481a:14
#04810:41
#04914:14
#05014:14
#05118:14
#05218:14
#05312:14
#05412:14
#0241f:000000000000000000000011
#05519:24
#05513:24
#00510:41
#03410:41
#01910:41
#0053a0:14
#0063a0:24
#007340:14
#008340:24
#017380:14
#018380:24
#019340:14
#020340:24
#0213a0:14
#0223a0:24
#023320:14
#024320:24
#034380:1626
#036320:1626
#043380:1626
#044320:1626
