This file was generated by Ched 2.7.0.0.
#TITLE ""
#ARTIST ""
#DESIGNER ""
#DIFFICULTY 0
#PLAYLEVEL
#SONGID ""
#WAVE ""
#WAVEOFFSET 0
#JACKET ""
#REQUEST "ticks_per_beat 480"
#00002: 4
#BPM01: 137
#00008: 01
#TIL00: ""
#HISPEED 00
#MEASUREHS 00
#00115:000000130000130013001300
#00118:130013001300000000130000
#0011b:000000000013000000000000
#00112:000000000000000000000013
#00218:13000013
#0021b:001300131300
#00212:130000000000130013000013
#00215:000000000013
#00515:130013000000130000130000
#00518:001300000013001300001300
#00512:000000000000000013000013
#0051b:23232323
#00510:41
#00615:131300131313
#00618:001300000000001300000013
#00612:00000013
#0061b:230000230013230000230000
#00818:130013000000001300001300
#00815:001300000000000013000013
#0081b:00001313
#00812:230000230013230000230000
#0091b:230000131300000013000000
#00917:0013
#00919:000000000000001300000000
#00918:000000000000000000000013
#00915:000000131300000000000000
#00912:230000000000000000000013
#01018:130000130013000000000000
#0101b:001300130000
#01015:001300
#01012:130000131300
#01017:000013
#0111b:00130013
#01118:000000001300000000000013
#01115:000000000013000000000000
#01112:000000000000130000000013
#01116:13
#01215:130013130000
#01218:001300000013000013000000
#0121b:001300000000
#01212:000000130000000013000000
#01210:41
#0151b:000000000000130000000013
#01512:00130013
#01515:000000001300000000000013
#01518:000000000013000000000000
#01517:13
#0161b:130013
#01618:001300000013001300000013
#01615:001300130013
#01612:00000013
#01718:00131300
#01712:230000001300000013000013
#01715:000013000000001300000000
#0171b:13000013
#0181b:000013000013000000000000
#01818:001300000000130013000000
#01815:130000130000001300000000
#01812:000013
#0191b:000000130000130013000000
#01915:000000001300000000000013
#01918:000000000013000000000000
#01912:0013
#01916:000013
#01910:41
#02018:130013000000130000130000
#02015:001300000000
#0201b:001300001300000000000000
#02012:00001313
#02118:130000130000000000000013
#0211b:0013
#02112:130000130000000013000000
#02115:000000000013130000130000
#02218:130000000013130000000000
#0221b:000013130000000013000000
#02212:130000000013130000000000
#02412:001300001300130000131323
#02415:130013000000001300000000
#02418:001300001300
#0241b:000000000000000000131323
#0241f:000000000000000000000011
#0261b:000000130000000013130000
#02618:001300
#02612:000000000000130000000013
#02615:000000000013000000000000
#02712:13
#0271b:00130000
#02715:00130000
#03012:00130000
#03015:130013001300130000000013
#03018:001300000013000013130000
#0301b:1313
#03118:000000130000000000000013
#0311b:0013
#03115:130000000000000013130000
#03112:00130000
#03218:130000003333333333000000
#0321b:000013130000000000000000
#03212:000013130000000000000000
#03215:000000003333333333000000
#03318:130000000013000000130013
#03315:000023130000000013000000
#03312:230000000000000000130013
#0331b:00230000
#0331f:21
#0341b:131300000000
#03418:000000130000000013000013
#03412:00130013
#03415:131300000013
#03410:41
#03712:13
#0371b:001300000013130000000000
#03718:000013000000000000000013
#03715:000000130000000013130000
#03818:130013000013000000000000
#0381b:00130000
#03815:001300001313000000000000
#03812:00000013
#04115:000000230013000000000013
#04112:000000000000000013130000
#04118:230023000000000000130000
#0411b:000000000013000000000000
#04110:41
#04215:13
#04218:000013130000000000130013
#04212:000000000013130000000000
#04318:000000000013130000130013
#04315:000013130000000000001300
#04312:130000000000001300000000
#0431b:000013
#0441b:13131300
#04418:000013000013000000000000
#04417:000000000000000000120012
#04415:001300001300000000000000
#04412:23232300
#0451b:001300000000000000130000
#04512:130000130013
#04518:000013000013000013001300
#04515:000000130000001300130000
#04718:000000130013000013000000
#04715:000000001300000000130000
#0471b:000000000000130000000013
#04712:000000230000000000001300
#04818:13
#0481b:000013000000230000130000
#0481b:00000013
#04816:00001313
#04816:00000013
#04812:1300000000130013
#04817:0000000000130013
#04810:41
#00318:000000130000130013001300
#00315:130013001300000000130000
#00312:000000000013000000000000
#0031b:000000000000000000000013
#00415:130013
#00412:001300130000
#0041b:130000130013
#00418:000000000000000000130013
#00718:130013000000130000130000
#00715:001300000013001300001300
#0071b:000000000000000013000013
#00712:23232323
#01312:000000130000000013000000
#01315:000000001300000000000013
#01316:0013
#01314:000000000000001300000000
#01318:000000130013000000000000
#0131b:000000000000000000000013
#01415:130000130013000000000000
#01412:001300130000
#01418:001300
#0141b:130000000000131313000000
#01416:000013
#02312:130000130000130013000000
#02318:000000001300000000000013
#02315:000000000013000000000000
#0231b:0013
#02317:000013
#02812:000000130000000013130000
#02815:001300
#0281b:000000000000130000000013
#02818:000000000013000000000000
#0291b:13
#02912:00130013
#02918:00130013
#02915:000000000013
#03515:130000000013000000130013
#03518:000023130000000013000000
#0351b:230000000000000000130013
#03512:00230000
#03612:131300000000
#03615:000000130000000013000013
#03618:131300000013
#0361b:00130013
#0391b:13
#03912:001300000013130000000000
#03915:000013000000000000000013
#03918:000000130000000013130000
#04015:130013000013000000000000
#04012:00130000
#04018:001300001313000000000000
#0401b:000013
#04915:000000130013000013000000
#04918:000000001300000000130000
#04912:000000000000130000000013
#0491b:000000230000000000001300
#05015:13
#05012:000013000000230000130000
#05012:00000013
#0501b:1300000000130013
#05017:00001313
#05017:00000013
#05016:0000000000130013
#05118:000000130013000000130000
#05115:000013130013
#0511b:000000131300
#05112:000000230000001300000013
#05212:130000000000000013230000
#05215:001300230000
#05218:13
#05217:0000000000130000
#05216:0000000000000013
#0521b:000000000000230000000013
#0531b:130000230000001300000013
#05315:000000130013000000130000
#05318:000013130013
#05312:000000131300
#0541b:13002323
#05418:000013000000001300000013
#05415:130000001313
#05412:00002323
#0551b:23
#05512:23
#00252:53
#00255:001300000000
#0045b:63
#00458:001300000000
#01052:53
#01057:000053
#01152:0053
#01258:000053
#01252:000053
#0125b:000000000000000000000013
#01255:000000000000000000000013
#0155b:0063
#0145b:63
#01456:000063
#01752:005300
#0175b:00000063
#02058:00005353
#02052:000000001300530000530000
#02055:005300000000
#01855:00530000
#01858:000053
#01852:000053
#01952:0053
#01956:000053
#0195b:000053
#02158:00530000
#0215b:0053
#02155:00000063
#02252:6353
#0225b:000053
#0235b:0063
#02357:000063
#02352:000063
#02458:006300000000
#0245b:001300
#02652:0053
#0265b:00000053
#02752:5313
#02755:00530000
#0275b:00530000
#02758:0013
#0285b:0063
#02852:00000063
#0295b:6313
#02952:00630000
#02958:00630000
#02955:0013
#03055:0053
#03058:00000053
#03155:53
#03152:00530000
#03158:00530000
#0315b:0053
#0325b:00530000
#03252:00630000
#03352:13
#0335b:00130000
#03355:00530000
#03358:000000000053000000000000
#03458:00530000
#03452:00530000
#03555:000000000063000000000000
#03558:00630000
#0355b:13
#03552:00130000
#03655:00630000
#0365b:00630000
#03755:00530053
#0375b:0053
#03858:000000000053000000000000
#0385b:00000013
#03852:00000013
#03958:00630063
#03952:0063
#04055:000000000063000000000000
#0405b:000013
#04052:000013
#0415b:000000000053000000000000
#04158:13
#04258:000000530000000000000053
#04252:0023
#04658:000000000013000000000000
#04652:000000000013000000000000
#04655:000000000000000000000013
#0465b:000000000000000000000013
#04856:00005353
#04852:5300000000230023
#04857:0000000000230023
#0485b:000013000000530000530000
#04855:001300000000
#05052:000013000000630000630000
#0505b:6300000000230023
#05058:001300000000
#05057:00006363
#05056:0000000000230023
#05255:001300000000
#05258:53
#0525b:001300530000
#05257:0000000000230000
#05256:0000000000000023
#05252:00000053
#05155:0053
#05152:000000000000002300000000
#05458:001300000000
#05455:63
#05452:001300000000
#05358:0063
#0535b:000000000000002300000000
#001320:132300000000
#0013b0:000000132300
#002320:13
#002350:002300000000
#0033b0:132300000000
#003320:000000132300
#0043b0:13
#004380:002300000000
#005320:000000130023000000000000
#006320:000000130023000000000000
#0073b0:000000130023000000000000
#0083b0:000000130023000000000000
#009320:0013
#009360:000023
#010320:13
#010350:002300000000
#010370:000013
#0113b0:23
#011320:0013
#011360:00000023
#0123b0:000000000000130000000023
#012380:000033
#012321:000013
#012351:000000000000000000000023
#0133b1:0013
#013371:000023
#0143b1:13
#014381:002300000000
#014361:000013
#015321:23
#0153b1:0013
#015371:00000023
#016321:000000130023000000000000
#017321:001300
#017351:0023
#0173b1:00000013
#017381:000000000000000000000023
#018351:00130000
#018321:000000000023000000000000
#018321:000013
#019351:23
#018380:000013
#0193b0:23
#019320:000000130023
#019360:000033
#0193b1:000013
#019371:000000000023
#020351:001300000000
#020321:002300
#020381:0013
#0203b1:000023
#020320:0013
#020350:000023
#020380:00000013
#0203b0:000000000000000000000023
#020321:00000013
#020351:000000000000000000000023
#021381:000000130000000033230000
#0213b1:000000000033330000000000
#021350:00000013
#021320:000000000000000000000033
#022320:33
#022350:000033230000000000000000
#022320:0013
#022350:000023
#0223b1:000013
#023381:23
#0233b1:000000130023
#023371:000033
#023320:000013
#023360:000000000023
#024380:001300000000
#0243b0:002300
#026320:0013
#026350:000023
#0263b0:00000013
#026380:000000000000000000000023
#027320:1323
#027350:00330000
#0273b1:00130000
#027381:0023
#0283b1:0013
#028381:000023
#028321:00000013
#028351:000000000000000000000023
#0293b1:1323
#029381:00330000
#029320:00130000
#029350:0023
#030350:0013
#030320:000023
#030380:00000013
#0303b0:000000000000000000000023
#031350:1323
#031320:00330000
#031381:00130023
#0313b1:0033
#0323b1:00130000
#032381:000000003333333333230000
#032320:00130000
#032350:000000003333333333230000
#033350:00130000
#033320:000000000023000000000000
#033381:000000000013000000000000
#0333b1:000023
#034381:00130000
#0343b1:0023
#034320:00130000
#034350:0023
#035380:00130000
#0353b0:000000000023000000000000
#035351:000000000013000000000000
#035321:000023
#036351:00130000
#036321:0023
#0363b0:00130000
#036380:0023
#037350:00130000
#037320:000000000023000000000000
#0373b0:0013
#037380:000023
#037350:00000013
#037320:000000000000000000000023
#038380:000000000013000000000000
#0383b0:00000023
#039380:00130000
#0393b0:000000000023000000000000
#039320:0013
#039350:000023
#039380:00000013
#0393b0:000000000000000000000023
#040350:000000000013000000000000
#040320:000023
#041320:13
#041350:002300000000
#041380:000000130000000023000000
#0413b0:000000000033000000000000
#042380:00130000
#0423b0:0023
#042321:0013
#042351:000000000000000000330023
#042380:000000000000000000000013
#0433b0:00230000
#046350:001323000000000000000000
#0463b1:001323000000000000000000
#046351:00130000
#046321:000000005323000000000000
#0463b0:00130000
#046380:000000005323000000000000
#046380:000000000000001323000000
#046321:000000000000001323000000
#046381:00000013
#0463b1:000000000000000000005323
#046320:00000013
#046350:000000000000000000005323
#047350:000000132300
#048320:13
#048350:002300000000
#048360:00001333
#048320:0000000000530053
#049360:23
#0483b1:00001333
#048371:0000000000530053
#0493b1:23
#049381:000000132300
#0503b1:13
#050381:002300000000
#050371:00001333
#0503b1:0000000000530053
#051371:23
#050320:00001333
#050360:0000000000530053
#051320:23
#051350:000000132300
#051320:000000000000005300000000
#052380:13
#0523b0:002300000000
#0523b0:00001323
#052370:0000000000530000
#052321:00000013
#052361:0000000000000053
#053321:23
#053381:000000132300
#0533b1:000000000000005300000000
#054351:13
#054321:002300000000
