This file was generated by Ched 2.7.0.0.
#TITLE ""
#ARTIST ""
#DESIGNER ""
#DIFFICULTY 0
#PLAYLEVEL
#SONGID ""
#WAVE ""
#WAVEOFFSET 0
#JACKET ""
#REQUEST "ticks_per_beat 480"
#00002: 4
#BPM01: 137
#00008: 01
#TIL00: ""
#HISPEED 00
#MEASUREHS 00
#00112:000000130000000000000013
#00118:000013000013
#00115:000000000013000000130000
#0011b:000000131300
#00518:001300000000001300130000
#00515:001300131300
#00512:230000000013
#00510:41
#00615:001300000000001300000000
#00618:001300131300
#0061b:23
#00818:001300000000001300000013
#00815:001300001313
#00812:2323
#0081b:00000023
#0091b:00130000
#00915:000000001300000000000013
#00912:23
#00918:000000000000003300000000
#01015:000000130013000013000000
#01018:131300
#0101b:0013
#0111b:00130000
#01115:001300
#01118:000000000013000000000013
#01112:0013
#01215:131313
#01218:001300000013000000000000
#01212:001300000000
#0121b:00130000
#01210:41
#0161b:13
#01615:001300000000130013000000
#01618:000013000013001300000000
#01612:00130000
#01718:00130000
#01712:001300
#01715:000013
#0171b:00000013
#01815:131300131300
#01818:001300130000001300000000
#0191b:00130000
#01915:001313
#01918:000000000013000000000000
#01912:0013
#01910:41
#02018:130013000000000000000013
#02015:001300000000130000130000
#0201b:000013
#02418:001300000000130013000000
#02415:130013000000001300000000
#02412:000000000000000000140024
#0241a:000000000014
#0241f:000000000000000000000011
#0261b:00130000
#02615:000000001300000000130000
#02618:000000000013000013000013
#02612:0013
#02712:13
#02715:00130000
#03012:000000130000000013000000
#03018:000000001300000000130000
#03015:000000000013000000000013
#0301b:0013
#03118:000000000000000000000013
#0311b:13
#03112:0013
#03215:130000003434343434000000
#0321a:001400000000
#03212:00140000
#03312:000000000013000000000000
#03318:000000230000000000130013
#0331b:23
#03315:002300000000
#0331f:21
#03418:000000130000000013000000
#03412:000013
#03415:131300000000
#03410:41
#03712:130013
#03718:001300000000130000130000
#03715:000013000013000000000000
#0371b:00130000
#03815:131313000000
#03818:001300130013000000000000
#04118:00230013
#04115:000023000000000000000013
#04112:000000000013000000000000
#0411b:23
#04110:41
#04218:13
#04215:001300000000
#0421b:00130000
#04212:000000000000000000000013
#04318:000000000000000000130013
#04315:000000000013
#04415:001300000000
#04418:000000000013000000130013
#04412:2323
#0441b:00230000
#0451b:001300000000130000000000
#04512:13000013
#04515:000013000013001300000000
#04518:000000130000000013001300
#04718:000000001300000000130000
#04715:000000000013000013000000
#0471b:000000000000130000000013
#04712:000000230000000000001300
#00218:130000000000000000000013
#0021b:000000131300
#00215:000000000013
#00212:000000131300
#00315:130013000013
#0031b:000000130000000000000013
#00318:000000000013000000130000
#00312:000000131300
#0041b:0013
#00415:130000001313
#00418:000000000000000000130013
#01515:000000000013000000000013
#01512:00130000
#01518:001300
#0151b:0013
#02112:130013
#0211b:00130000
#02115:000000000013000000000013
#02118:00001313
#02218:1313
#02215:001300000000
#0221b:00130000
#02212:000000000013000000000000
#02312:13130000
#0231b:1313
#02318:001313
#02315:000000000013000000000000
#04818:0000000000140014
#0481a:00002414
#04812:13
#04810:41
#05418:000000000000001300000013
#05415:000000001313
#0541b:13000023
#05412:0023
#00715:001300000000001300130000
#00718:001300131300
#0071b:230000000013
#0131b:00130000
#01315:000000001300003300000000
#01318:000000000013000000000013
#01415:130000000013001300000000
#01418:000000131300
#02812:00130000
#02818:000000001300000000130000
#02815:000000000013000013000013
#0281b:0013
#0291b:13
#02918:00130000
#0351b:000000000013000000000000
#03515:000000230000000000130013
#03512:23
#03518:002300000000
#03615:000000130000000013000000
#0361b:000013
#03618:131300000000
#0391b:130013
#03915:001300000000130000130000
#03918:000013000013000000000000
#03912:00130000
#04018:131313000000
#04015:001300130013000000000000
#0461b:001300130000000000000000
#04615:001300130000000000000000
#04612:000000000000001300130000
#04618:000000000000001300130000
#04915:000000001300000000130000
#04918:000000000013000013000000
#04912:000000000000130000000013
#0491b:000000230000000000001300
#0501b:13
#05014:0000000000140014
#05012:00002414
#05118:000000001300000000130000
#05115:000000000013000013000000
#0511b:000000000000130000000013
#05112:000000230000000000001300
#05212:1300000000140014
#05214:00001414
#05218:0000000000140014
#0521a:00002414
#05315:000000001300000000130000
#05318:000000000013000013000000
#05312:000000000000130000000013
#0531b:000000230000000000001300
#05512:23
#00258:53
#0025b:001300000000
#01058:53
#01055:000063
#01152:0053
#01255:000063
#01252:000000000000000000000013
#01752:005300
#0175b:00000063
#01858:00630000
#01855:000063
#01952:0053
#01955:000053
#02058:006300000000
#0205b:001300
#02258:0053
#02752:5313
#02755:00530000
#03252:00640000
#0335b:13
#03358:00130000
#03352:000000000053000000000000
#03458:00530000
#03758:00000053
#03858:000000000053000000000000
#0385b:00000013
#04658:000000000013000000630000
#04652:000000000013000000630000
#0465b:000000530000000000000013
#04655:000000530000000000000013
#04858:0000000000240024
#0485a:00005454
#04852:53
#04855:001300000000
#00455:63
#00452:001300000000
#0155b:0063
#01455:63
#01458:000053
#01655:000053
#0235b:0063
#02358:000063
#02455:005300000000
#02452:001300
#0295b:6313
#02958:00630000
#0315b:53
#03152:0053
#0355b:000000000063000000000000
#03552:13
#03555:00130000
#03655:00630000
#03955:00000063
#04055:000000000063000000000000
#04052:000013
#04252:000000000000000000000053
#0425b:00530000
#0505b:63
#05058:001300000000
#05054:0000000000240024
#05052:00006464
#05252:5300000000240024
#05255:001300000000
#05254:00005454
#05258:0000000000240024
#0525a:00005454
#0545b:63
#05458:001300000000
#0415b:13
#04158:00130000
#04152:000000000053000000000000
#002380:13
#0023b0:002300000000
#004350:13
#004320:002300000000
#0053b0:000000130023000000000000
#006320:000000130023000000000000
#006320:000000000000000000130023
#007320:000000130023000000000000
#0083b0:000000130023000000000000
#009380:000000000000133300000000
#0093b0:000023
#010380:13
#0103b0:002300000000
#010350:000013
#011320:23
#011320:0013
#011350:00000023
#012320:000000000000130000000023
#012350:000033
#013350:000000000000133300000000
#013320:000023
#014350:13
#014320:00230000
#014380:000013
#0153b0:23
#0153b0:0013
#015380:00000023
#016350:000013
#017320:23
#017320:001300
#017350:0023
#0173b0:00000013
#017380:000000000000000000000023
#018380:00130000
#0183b0:000000000023000000000000
#018350:000013
#019320:23
#019320:000000130023
#019350:000033
#020380:001300000000
#0203b0:002300
#022380:0013
#0223b0:000023
#0233b0:000000130023
#023380:000033
#024350:001300000000
#024320:002300
#027320:1323
#027350:00330000
#0293b0:1323
#029380:00330000
#0313b0:13
#031380:00230000
#031320:0013
#031350:00000023
#032320:00140000
#032350:000000003434343434240000
#033320:000000000013000000000000
#033350:000023
#034380:00130000
#0343b0:0023
#0353b0:000000000013000000000000
#035380:000023
#036350:00130000
#036320:0023
#037380:00000013
#0373b0:000000000000000000000023
#038380:000000000013000000000000
#0383b0:00000023
#039350:00000013
#039320:000000000000000000000023
#040350:000000000013000000000000
#040320:000023
#041320:000000000013000000000000
#041350:000023
#0423b0:00130000
#042380:00000023
#042320:000000000000000000000013
#043350:0023
#046350:00130000
#046320:000000000023000000000000
#0463b1:00130000
#046381:000000000023000000000000
#046381:00000013
#0463b1:000000000000000000000023
#046320:00000013
#046350:000000000000000000000023
#048320:13
#048350:002300000000
#0483a0:00001434
#048380:0000000000540054
#0493a0:24
#0503b0:13
#050380:002300000000
#050320:00001434
#050340:0000000000540054
#051320:24
#052320:13
#052350:002300000000
#052340:00001434
#052320:0000000000540054
#053340:24
#0523a1:00001434
#052381:0000000000540054
#0533a1:24
#0543b1:13
#054381:002300000000
