This file was generated by Ched 2.7.0.0.
#TITLE ""
#ARTIST ""
#DESIGNER ""
#DIFFICULTY 0
#PLAYLEVEL
#SONGID ""
#WAVE ""
#WAVEOFFSET 0
#JACKET ""
#REQUEST "ticks_per_beat 480"
#00002: 4
#BPM01: 137
#00008: 01
#TIL00: ""
#HISPEED 00
#MEASUREHS 00
#00112:130000130000130013001300
#00116:000000001300000000000013
#0011a:000000000013000000000000
#00118:13000013
#00119:000000000013
#0011b:001300001300
#00115:001300000000
#00117:0013
#0021b:131300131300
#00212:130000000000130013000013
#00218:00000013
#00215:000000000000001600001600
#00518:001313000000001300130013
#00512:2c231323
#00515:000000000013000000001300000000001300000000000013
#0051b:000013230013
#00510:41
#00618:001300000000000013000013
#00615:000000001300000000001313000013000000000013000000
#0061b:00002313
#00612:2c230023
#0091b:00130000
#00918:001316
#00917:000000000000000000000013
#00915:000000130000001600000000
#00912:240000001300160000000013
#0091a:24
#01017:130013
#0101b:001300130013
#01012:130000000016130013000000
#01018:00160000
#01015:000000001600001600000000
#0111b:00130013
#01118:000000001300000000000013
#01115:000000000013000000000000
#01112:130000000000130000000013
#01116:00141400
#01215:130013130000
#01218:001300130013000000000000
#0121b:001300000000
#01212:001300130013000013000000
#01217:000013
#01210:41
#0161b:130000130000000013131313
#01618:000013000013000000001300130013000000000000000000
#01612:000016000000131313130000
#01615:000000000000000000001313
#01718:000013131300000000000000
#01712:230013001300000000000013
#0171b:1313
#01717:000000000000001300000000
#01713:000013
#0171a:00000013
#01716:000000000013
#0181b:000013000013000013000000
#01818:000013000013000000000000130000000000000013000000
#01815:130000130000001300130013
#01812:000013000013000013001300
#0191b:000000130000130013000000
#01915:000000001300000000000019
#01918:130000000013000000000000
#01912:001300130000
#01916:000013
#01910:41
#02018:16001313
#0201b:001313000000001300001300
#02012:00001313
#02015:000013000000001300001300
#0211b:130000001300130000130000
#02115:13
#02112:000000130000001318000013
#02116:000014000018000000001800
#02216:000000140000140000001400
#02212:131800000013000000000000
#0221b:001300000000
#02218:00000014
#02214:000000000000000000000014
#0221a:000014
#02412:001600001300131619001326
#02415:160013000000000000190000
#02418:001300160016
#0241b:000000000000001300000023
#0241f:000000000000000000000011
#0261b:000000130000000013130000
#02618:000013160000
#02612:000000160000130000000013
#02615:000000000013000000000000
#02712:13
#02717:00130000
#0271b:00130000
#02716:0013
#03012:13131300
#03015:000013001300000000000013
#03018:001300000013000013000000
#0301b:13131313
#03112:000000000000131316000013
#0311b:131313000000130000001313
#03115:000000131313000000001300
#03118:000000000000001300160000
#03218:131313260000260000260000
#03215:001300130013000016000000000016000000000016000000
#03212:000000000016000016000016
#0331b:13230000
#03318:001300000013000000130013
#03315:000023130000000013001300
#03312:230000000000130000130013
#0331f:21
#0341b:130000001300000000000000000000000000001300000000
#03415:131913000000000016001300
#03412:00130013
#03418:000000000000000000000013
#03417:00130000
#03410:41
#03712:13
#03715:001600160000000000160000
#03718:001300160000
#0371b:000000130013000000130013
#03812:130000000000000013130000
#03818:000013001313000000001313
#0381b:00130000
#03815:000013000000000000001300000000000000000000130000
#04115:000000000013000000001613
#04112:130000230000130013130000
#0411b:23131313
#04118:002300000000
#04110:41
#0421b:131300000013
#04218:000000000013000000130000
#04212:130000000013000000000000
#04215:000013160000160016000016
#04318:130000000013130000131313
#04312:130000000013130000000000
#04315:000000001300130000000000000013000000001300130013
#0431b:000013130000000013000000
#04412:2c18142c00002c0000000000
#0441a:000000000014000000000000
#04416:000000001800000000120012
#04718:000013000000001300001300000000001300000000000000
#04715:000013001300000000130000
#0471b:130000000000131300000013
#04712:000000230000000000001300
#04818:13
#0481b:001300000000
#04814:0000000000140014
#0481a:00002414
#04810:41
#0041b:130000000000130000000013
#00412:131300131300
#00415:00000013
#00418:000000000013
#02312:140000160000130013000000
#02318:000000001300000000000016
#02315:000000000013000000000000
#0231b:001300130000
#02317:000013
#02314:00000013
#02316:000000000013
#0231a:14
#02912:00130013
#02915:000000000013
#0291b:13000013
#02916:00130000
#02917:0013
#02918:000000000000000000000013
#05118:000000001300001300001300000013000000130013000000
#05115:000013000000000013000000130000000000001300000000
#0511b:000000131300
#05112:000000230000001300000013
#05212:130000000000240014240000
#05216:000000001300000000000000000000140000000000140000
#0521a:000000000000240000000014
#05418:000000000000001300000000
#05416:000000000000000013000013
#05414:000000000013
#0541b:130000000000230000231313
#05417:001300000000
#05412:000000000000231313230000
#0031b:130000130000130013001300
#00317:000000001300000000000013
#00313:000000000013000000000000
#00315:13000013
#00314:000000000013
#00312:001300001300
#00318:001300000000
#00316:0013
#00815:001300000000001300000013
#00818:000000001300000000001313000000001300000013000000
#00812:2c002313
#0081b:00230023
#01312:000000130000000016000000
#01315:000000001300001600000000
#01316:000000000000000000000013
#01318:000000130013160000000000
#0131b:000000001300000000000013
#01416:130013
#01412:000013160000130000001300
#0141b:130000131300
#01415:000000001600001600000000
#01418:000000000016000000000000
#01512:000000130000000000131600
#01515:001300
#01518:000000000013000000000013
#0151b:1313
#01516:00141400
#02812:000000130000160013130000
#02815:001300
#0281b:000000000000130000000013
#02818:000000160013000000000000
#03512:13230000
#03515:001300000013000000130013
#03518:000023130000000013001300
#0351b:230000000000130000130013
#0391b:13
#03915:001613160000000000160000
#03912:000000130013160000130013
#0401b:130000000000000013130000
#04015:000013001313000000001313
#04012:00130000
#04018:000013000000000000001300000000000000000000130000
#0451c:12120000
#04518:001200000000000012001200
#04514:000012120000120000120000
#04512:000000000012000000001200
#04516:000000000000001200000000
#0451a:00000012
#04616:001400000000001400000000
#04612:000000140014000000000000
#0461a:000000000000000000140014
#04915:000013000000001300001300000000001300000000000000
#04918:000013001300000000130000
#04912:000000000000131300000013
#0491b:000000230000000000001300
#05015:13
#05012:000013000000240000140000
#05018:0000000000140014
#05315:000000001300001300001300000013000000130013000000
#05318:000013000000000013000000130000000000001300000000
#05312:000000131300
#0531b:000000230000001300000013
#0531a:14
#00715:001313000000001300130013
#0071b:00231323
#00718:000000000013000000001300000000001300000000000013
#00712:2c0013230013
#03612:130019001300000000000000000000000000001300000000
#03615:000000000000000016000013
#0361b:00130013
#03618:131300000013
#03616:00130000
#0551b:23
#05512:23
#00252:53
#00256:001300000000
#01052:53
#01057:000053
#0105b:000000000023
#01152:0053
#01257:000053
#01252:000053
#0125b:000000000000000000000013
#01256:000000000000000000000013
#01752:005300
#02058:000000001300530000530000
#02052:000000001300530000530000
#0205b:000053000000002300002300
#02055:000053000000002300002300
#01952:0053
#01956:000053
#0195b:000053
#0235b:0063
#02357:000063
#02458:006300000000
#0245b:001300
#02652:0053
#0265b:00000053
#02752:5313
#02757:00530000
#03052:1353
#0305b:00130053
#03352:13
#0335b:00130000
#03355:00530000
#03358:000000000053000000000000
#03457:00530000
#03452:00530000
#03755:00560056
#03758:0056
#03858:000000000053000000000000
#0385b:00000013
#04656:000000000014000000000014
#04854:0000000000240024
#0485a:00005454
#04855:001300000000
#0485b:001300000000
#05256:000000001300000000000000000000240000000000240000
#0525a:001400540000
#05252:00000054
#05155:0053
#05152:000000000000002300000000
#00152:000000131313
#0035b:000000131313
#0045b:63
#00457:001300000000
#0155b:0063
#0145b:63
#01456:000063
#01452:000000000023
#0285b:0063
#02852:00000063
#0295b:63001313
#02956:00630000
#03558:00630000
#03555:000000000063000000000000
#0355b:13
#03552:00130000
#03955:00660066
#03952:0066
#04055:000000000063000000000000
#04052:000013
#0415b:13530000
#04152:53130000
#04452:1c1c1c00
#05052:000013000000640000640000
#05058:000000001300000000000000000000240000000000240000
#05457:001300000000
#05452:001400000000
#05358:0063
#0535b:000000000000002300000000
#02152:00130000
#0215b:00001313
#02252:13
#03656:00630000
#0365b:00630000
#002320:13
#002360:002300000000
#0043b0:13
#004370:002300000000
#0063b0:000000130023000000000000
#008320:000000130023000000000000
#010320:13
#010360:002300000000
#010370:000013
#0103b0:000000000053
#011370:23
#011320:0013
#011360:00000023
#0123b0:000000000000130000000023
#012370:000033
#012321:000013
#012361:000000000000000000000023
#0143b1:13
#014371:002300000000
#014361:000013
#014321:000000000053
#015361:23
#0153b1:0013
#015371:00000023
#016321:000000130023000000000000
#017321:001300
#017351:0023
#019321:000000130023
#019361:000033
#0193b0:000013
#019370:000000000023
#0203b0:001300000000
#020380:002300
#020351:001300000000
#020321:002300
#020381:000000132300
#0203b1:000000000000005300000000
#020320:000000132300
#020350:000000000000005300000000
#020380:000000000000000000130023
#0203b0:000000000053
#020321:000000000000000000130023
#020351:000000000053
#0223b1:000000130023000000000000
#022321:000000132300
#0233b1:000000130023
#023371:000033
#024381:001300000000
#0243b1:002300
#026321:0013
#026371:000023
#0263b1:00000013
#026361:000000000000000000000023
#027321:1323
#027371:00330000
#0283b1:0013
#028361:000023
#028321:00000013
#028371:000000000000000000000023
#0293b1:1323
#029361:00330000
#030321:0013
#030351:000023
#0303b1:00000013
#030381:000000000000000000000023
#033351:00130000
#033321:000000000023000000000000
#033380:000000000013000000000000
#0333b0:000023
#034370:00130000
#0343b0:0023
#034321:00130000
#034361:0023
#035381:00130000
#0353b1:000000000023000000000000
#035350:000000000013000000000000
#035320:000023
#036360:00130000
#036320:0023
#0363b1:00130000
#036371:0023
#037351:00160000
#037321:000000000026000000000000
#037381:0016
#037351:000026
#037351:00000016
#037321:000000000000000000000026
#038381:000000000013000000000000
#0383b1:00000023
#039351:00160000
#039381:000000000026000000000000
#039321:0016
#039351:000026
#039351:00000016
#039381:000000000000000000000026
#040351:000000000013000000000000
#040321:000023
#041321:13
#041351:002300000000
#0413b1:00130000
#041381:000000000023000000000000
#044381:000000000000000000120022
#0463a1:001424000000000000000000
#0463a1:00140000
#046361:000000005424000000000000
#046321:000000000000001424000000
#046321:00000014
#046361:000000000000000000005424
#047351:0013
#047321:000000000000005323000000
#048321:13
#048351:005323000000000000000000
#0483a1:00001434
#048341:0000000000540054
#0493a1:24
#049381:0013
#0493b1:000000000000005323000000
#0503b1:13
#050381:005323000000000000000000
#050321:00001434
#050381:0000000000540054
#051321:24
#051351:000000132300
#051321:000000000000005300000000
#052361:14
#0523a1:005424000000000000000000
#0523a1:00001424
#052361:0000000000540000
#052320:00000014
#052360:0000000000000054
#053320:24
#053380:000000132300
#0533b0:000000000000005300000000
#054360:14
#054320:005424000000000000000000
