This file was generated by Ched 2.7.0.0.
#TITLE ""
#ARTIST ""
#DESIGNER ""
#DIFFICULTY 0
#PLAYLEVEL
#SONGID ""
#WAVE ""
#WAVEOFFSET 0
#JACKET ""
#REQUEST "ticks_per_beat 480"
#00002: 4
#BPM01: 137
#00008: 01
#TIL00: ""
#HISPEED 00
#MEASUREHS 00
#00118:1414
#00114:00140000
#00214:1414
#00218:00140000
#0031a:1414
#00314:00140000
#00412:1414
#00418:00140000
#0051a:1414
#00514:00140014
#00510:41
#00712:1414
#00718:00140014
#0091a:0014
#01014:14
#01018:0014
#01112:1414
#01118:00140014
#01212:14340034
#01214:0014
#01210:41
#01312:0014
#01418:14
#01414:0014
#0151a:1414
#01514:00140014
#0161a:14340034
#01618:0014
#01714:0014
#0181a:14
#01814:00140000
#01818:0014
#01812:00000014
#0191a:14
#01914:0014
#01910:41
#02118:0014
#02114:24
#02212:14
#02218:00140000
#02214:0014
#0221a:00000014
#02312:14
#02318:0014
#02414:0014
#02418:00000014
#0241f:000000000000000000000011
#02514:14
#0261a:14
#02614:0014
#02812:14
#02818:0014
#0301a:14
#03014:0014
#03118:1414
#03114:00140014
#03218:14
#03318:00140000
#03314:0014
#0331a:00000014
#03312:24
#0331f:21
#03412:14
#03418:00140000
#03410:41
#03514:00140000
#03518:0014
#03512:00000014
#0351a:24
#0361a:14
#03614:00140000
#03712:1414
#03718:00140014
#03814:000000000014000000000000
#0391a:1414
#03914:00140014
#04018:000000000014000000000000
#04118:00140000
#04114:0014
#0411a:00000014
#04112:24
#04110:41
#04314:14
#04418:1414
#04414:00140000
#04512:14
#04518:00140000
#04514:0014
#0451a:00000014
#04614:14
#04612:00343434
#04718:00140000
#04714:0014
#0471a:00000014
#0491a:14
#04914:00140000
#04918:0014
#04912:00000014
#04814:14000024
#04818:0024
#04810:41
#05018:14000024
#05014:0024
#05112:1414
#05116:00140014
#05212:14
#05219:00002424
#05213:00002424
#0531a:1414
#05316:00140014
#0541a:14
#05419:00002424
#05413:00002424
#05519:14
#05513:14
#02014:0024
#02018:00000024
#0061a:00343400
#00812:00343434
#01252:54
#01254:0024
#0165a:64
#01658:0024
#01954:0054
#02052:14
#02358:0064
#0245a:14
#03258:54
#03854:000000000054000000000000
#03852:00000014
#04058:000000000064000000000000
#0405a:000014
#04354:54
#04654:54
#04854:14
#05058:14
#05252:14
#0545a:14
#0063a0:14343400
#006380:00000024
#008320:14343434
#009340:24
#012320:14340034
#012340:0034
#013320:24
#0163a0:14340034
#016380:0034
#0173a0:24
#019340:0014
#020320:24
#023380:0014
#0243a0:24
#0273a0:14
#027380:0024
#029320:14
#029340:0024
#032380:14
#0323a0:00000024
#034340:0014
#034320:00000024
#036380:0014
#0363a0:00000024
#038340:143434340034000000000000
#038320:00000024
#040380:143434340034000000000000
#0403a0:000024
#042320:14
#042340:00240000
#0423a0:0014
#042380:00000024
#043340:14
#043320:00000024
#046340:14
#046320:00343434
#047320:24
