This file was generated by Ched 2.7.0.0.
#TITLE ""
#ARTIST ""
#DESIGNER ""
#DIFFICULTY 0
#PLAYLEVEL
#SONGID ""
#WAVE ""
#WAVEOFFSET 0
#JACKET ""
#REQUEST "ticks_per_beat 480"
#00002: 4
#BPM01: 182
#00008: 01
#TIL00: ""
#HISPEED 00
#MEASUREHS 00
#00019:14
#00413:14
#00219:14
#00613:14
#0081a:14
#00914:14
#01312:14
#01218:14
#01210:41
#0241a:14
#02410:41
#02514:14
#02812:14
#02918:14
#0321a:14
#03314:14
#0341a:14
#0351a:14
#03612:14
#03610:41
#03718:14
#04012:0016
#04018:26
#04412:16
#04418:0016
#04512:16
#04518:0016
#04612:16
#04718:16
#04818:0016
#04812:16
#04810:41
#05218:16
#05212:0016
#05318:16
#05718:14
#06114:14
#0701a:14
#0701f:11
#07112:14
#07412:14
#0751a:14
#07818:0016
#07812:26
#0781f:00210000
#07912:1616
#07910:0041
#08018:1616
#08512:16
#08118:0016
#08112:16
#08312:0016
#08318:16
#0891a:14
#09312:14
#09418:14
#09518:14
#0101a:14
#01114:14
#01418:14
#01512:14
#06610:41
#0163a0:14
#0173a0:24
#018340:14
#019340:24
#020380:14
#021380:24
#022320:14
#023320:24
#026380:14
#027380:24
#030340:14
#031340:24
#038320:1400000000000034
#039320:0034003424000000
#041380:1626
#042320:1626
#043380:1626
#049320:1626
#050380:1626
#051320:1626
#054380:14
#056380:24
#058340:14
#060340:24
#0623a0:1434
#0633a0:3434
#0643a0:3434
#0653a0:24
#066320:1434
#067320:3434
#068320:3434
#069320:24
#072380:14
#073380:24
#076340:14
#077340:24
#082320:1626
#084380:1626
#0863a0:14
#0883a0:24
#090320:14
#092320:24
#096340:1400000000000034
#097340:00000024
