This file was generated by Ched 2.7.0.0.
#TITLE ""
#ARTIST ""
#DESIGNER ""
#DIFFICULTY 0
#PLAYLEVEL
#SONGID ""
#WAVE ""
#WAVEOFFSET 0
#JACKET ""
#REQUEST "ticks_per_beat 480"
#00002: 4
#BPM01: 182
#00008: 01
#TIL00: ""
#HISPEED 00
#MEASUREHS 00
#01515:00130013
#01518:0000000000000013
#0151b:13130000
#01512:0013001300130000
#0161b:13130000
#01616:0000001300000000
#01618:00000013
#01615:0000000000000013
#01612:13
#01712:1300130000130000
#0171b:13000013
#01715:0000000000000013
#01717:0000001300000000
#01818:00001313
#0181b:0000000000000013
#01812:0000000000000013
#0191b:0013000013000000
#01915:0000130000000013
#01918:0000001300001300
#01912:0013
#02215:00001313
#02218:0000000000130000
#02212:0000000000000013
#0221b:0000000000000013
#02415:00130013
#02412:2300001300000000
#02418:1300000000000013
#0241b:00000013000000000000000000000000
#02410:41
#02512:00000013000000000000130000000000
#02515:13000013
#02518:0013130000000013
#0251b:2300001300000000
#02612:1313
#02615:0013130000130000
#02618:00000013000013000000000013000000
#0261b:1300000013000013
#0271b:0000130000130000
#02718:0013
#02715:1300001300001300
#02712:0013000013000000
#02812:13
#02815:00000000000000000000130000130000
#0281b:0000001300001300
#02818:0000130000000013
#02816:0013000000000000
#02817:0013
#02915:0013130000131300
#0291b:00130013
#02918:0000001313000013
#02912:0013
#03017:0013000000000000
#03019:00130000
#03012:0013000000000013
#0301b:0000001300130000
#03016:0000000000130000
#03014:00000013
#0311b:0000120000000013
#03119:1200000000120000
#03115:0012000000001200
#03113:0000001200000000
#03216:23000013
#0321b:2300000000130013
#03212:0000002313000000
#03217:0000132300000000
#03317:00000013
#03316:13
#0331b:13
#03312:0000000000000013
#0351b:00000013
#03516:0000000000000013
#03517:13
#03512:13
#03616:00130000
#03612:2300000000001313
#03617:2300000013001313
#0361b:00130000
#03610:41
#0371b:00130013
#03712:0000001300000013
#03717:0013
#03716:0013000000130000
#03817:0013130000000000
#03812:0013130000000013
#0381b:0000000013000013
#03816:0013
#03919:0013000000000000
#03914:0013000000000000
#03912:0000001414000000
#0391a:0000001414000000
#03916:00000024
#04016:1300000000130000
#0401b:23001313
#04012:0000130000000013
#04017:00130000
#04115:0013000000000000
#04114:00130000
#04113:0000001300000000
#04112:0013
#0411b:0000000000000013
#04218:0013000000001300
#04219:00130000
#0421a:0000001300000000
#0421b:0000000013000013
#04212:00000013
#04318:0013001300000000
#04312:00130013
#0431b:0000000013000013
#04315:0013
#04412:0013
#0441b:0000000000130000
#04415:00000013
#04418:0000000000000013
#04518:0013000000001300
#04515:0013000000000013
#04512:0000130000130000
#0451b:0000130000130000
#04615:00130000
#04618:0000001300000000
#0471b:0000130000130000
#04718:0000001300001300
#04715:0000000000000013
#04712:0000001300000000
#0521b:13
#05218:0000130000000013
#05212:13
#05215:00000013
#05317:0013
#0531b:0000000000001313
#05315:0000001300000000
#05312:2413
#05316:0000000000001313
#05318:00130000
#0531a:24
#05417:0013130000000000
#05412:0013130000000000
#0551b:13
#05516:13
#0561b:0013130013130013
#05615:0000001300130000
#05612:00130013
#05618:13000013
#0621a:141400000000
#06216:001400001400000000000000
#06212:000000140014000000000000
#0661a:14140000
#06612:001400
#06616:000000000014000000000000
#06610:41
#06915:0013000000130000
#06918:00131300
#06912:0000001300000000
#0691b:13000013
#08817:00130000
#0881b:0013000000001313
#08812:0000131300130000
#08816:00000013
#09312:1300000000130000
#09315:00000013
#09316:0013000000000000
#09318:0000000000000013
#09617:1313
#0961b:0000130000230013
#09619:0013000000000000
#09612:1300000000230013
#09616:00130000
#06418:141400000000
#06412:001400000000000000000000
#06414:000000140014000000000000
#0641a:001400
#0631a:141400000000
#06316:001400001400000000000000
#06312:000000140014000000000000
#06518:141400000000
#06512:001400000000000000000000
#06514:000000140014000000000000
#0651a:001400
#0671a:001400140000000000000000
#06712:141400
#06716:000014000014000000000000
#06812:14140000
#0681a:001400
#06816:000000000014000000000000
#05718:0013130000001300
#05715:1300001300130000
#05712:00130013
#0571b:0000000013130013
#06018:1300000013001313
#06015:0013001300000000
#06012:00130013
#0601b:0000000000130000
#08917:00130000
#0891b:0013000000001313
#08912:0000131300130000
#08916:00000013
#0941b:1300000000000013
#09417:00000000001300000000000000000000
#09412:0000131300000013
#09412:0000000000000013
#09416:1300000000130000
#09414:0013000013000000
#09515:0013000000000000
#09518:00130000
#0951b:0000000000000013
#09512:0000000000130000
#09519:000000000000000000000033000000000000000000000000
#0951a:000000000033000000000000
#09513:000000000000000000000033000000000000000000000000
#09514:000000000033000000000000
#09018:0013000000001300
#09012:0000001300000000
#09015:0000130000130000
#0901b:0000000000000013
#09118:0013000000001300
#09112:0000001300000000
#09115:0000130000130000
#0911b:0000000000000013
#09212:13
#09216:0013000000000013
#09217:0000001300130000
#0921b:0013
#02012:13130000
#02017:0000001300000000
#02015:00000013
#02018:0000000000000013
#0201b:13
#02112:13000013
#02118:0000000000000013
#0211b:13130000
#02116:0000001300000000
#02312:0013000013000000
#02318:00130013
#02315:0000001300000013
#0231b:0013
#03417:23000013
#03412:2300000000130013
#03416:0000132300000000
#0341b:0000002300000000
#04812:23001313
#0481b:0000130000000013
#04817:1300000000130000
#04816:00130000
#04810:41
#0491b:0013000000001300
#0491a:00130000
#04919:0000001300000000
#04918:0013
#04912:0000000000000013
#05118:00002313
#05115:0023002300000013
#0511b:00230000
#05112:0023
#05012:0013000000000023
#05013:00130000
#05014:0000001300000000
#05015:00001313
#0501b:00000013
#05018:0000000000000023
#0701b:1212
#07013:1200000000000012
#07015:00120000
#07019:00120000
#07018:00000012
#07016:0000000000120000
#0701f:11
#07113:0000001200000000
#07114:00120000
#07115:0012000000000000
#0711b:0000000000000012
#07112:0012
#0721b:0000001200000000
#0721a:00120000
#07219:0012000000000000
#07216:00000012
#07218:0000000000000012
#0721c:0012
#07716:14
#07712:0014141414142400
#0771a:0014141414142400
#07817:0013
#07812:00251300
#07819:0000250000130000
#07814:00000013
#07816:2400000000000013
#0781b:0000000000000013
#0781f:00210000
#0791b:0013000000000000
#0791a:00130000
#07919:0000001300000000
#07918:0013
#07917:0000000000000013
#07912:0000000000000013
#07910:0041
#08118:0023002300001300
#08115:0000000023000013
#08112:0000230000130000
#0811b:0023
#08212:1313
#08215:00000013000013000000000000002300
#08218:0013130000002300
#0821b:13
#08415:00130023
#0841b:1313
#08412:13
#08418:0000001300000023
#08512:24130013
#08518:00000000000000130000000000001300
#08515:0013
#0851b:0000130000130000
#0851a:24
#0861b:0013230000000000
#08616:0013230000000000
#07314:0012000000000000
#0731a:00120000
#07316:0000001200000000
#07313:00000012
#0731b:0000000000000012
#07318:0012
#07419:00000012000012000000000000000000
#07412:0012
#07416:0000000000120012
#0741a:00000012
#07415:00120000
#07518:0012000000000000
#07514:00120000
#07516:0000000000120000
#0751a:00000012
#07512:0000000000000012
#07614:00120000
#07618:0000001200000000
#0761a:00000012
#08012:0013000000002300
#08013:00130000
#08014:0000001300000000
#08015:0000000013000023
#0801b:0000000000000023
#08018:00000023
#08315:00130013
#08318:0000000000000013
#08312:0000001300130000
#0831b:00130000
#08712:13
#08717:13
#00018:1313000013130000
#0001b:0000131300000000
#00015:0000000000000013
#0011b:0013001300000000
#00116:00130000
#00118:0000000000130013
#00112:00000013
#00113:000000000000000000000033000000000000000000000000
#00114:000000000033000000000000
#0031b:0013000000001300
#00315:00130013
#00318:0000001300130000
#00412:13
#00416:00000000001300000000000000000000
#00417:1300000000130000
#0041b:0000131300000000
#00419:0013000013000000
#00415:0000000000000013
#00615:00001313
#0061b:1300000000000013
#00617:00130000
#00616:13
#00612:0000130000000013
#00614:0013000000000000
#00618:0000000000130000
#00815:0013000013000000
#0081b:00131313
#00818:2300001300130013
#00812:0000131300001313
#01318:0013000000000013
#01312:00130013
#0131b:00130013
#01315:0000001300130000
#00918:0013001300130013
#0091b:00130013
#00912:00130013
#00915:1313
#00215:1313000013130000
#00212:0000131300000000
#00218:0000000000000013
#0051b:0013001300000000
#00516:00130000
#00518:0000000000130013
#00512:00000013
#00513:000000000000000000000033000000000000000000000000
#00514:000000000033000000000000
#00715:0000000000130000
#00718:0000000000130000
#09715:0000000000130000
#09718:0000000000130000
#01018:0013000013000000
#01012:00131313
#01015:2300001300130013
#0101b:0000131300001313
#01115:0013001300130013
#01112:00130013
#0111b:00130013
#01118:1313
#01215:0013000013001300
#01218:2300130000130000
#0121b:0000000013001313
#01212:1300131300000000
#01210:41
#05812:0013130013130013
#05818:0000001300130000
#0581b:00130013
#05815:13000013
#05915:0013130000001300
#05918:1300001300130000
#0591b:00130013
#05912:0000000013130013
#06118:0013001300000000
#0611b:00130013
#06112:0000000000130000
#06115:1300000013001313
#01418:0013000013001300
#01415:2300130000130000
#01412:0000000013001313
#0141b:1300131300000000
#01652:63
#0175b:53
#0665a:14
#06852:14
#0945b:5300000000000013
#09457:00000000002300000000000000000000
#09452:0000000000000013
#09452:0000000000000013
#09652:5300000000000053
#09656:00230000
#0965b:0000000000000063
#01852:0000000000000063
#01952:0013
#0205b:53
#02152:63
#0225b:0000000000000053
#02458:53
#0245b:00000023000000000000000000000000
#02555:63
#02552:00000023000000000000000000000000
#0265b:0000000000000023
#02658:00000063
#02755:53000013
#02752:0023000000000000
#02852:63
#02856:0023000000000000
#0285b:0000005300000000
#02857:0023
#02858:0000000000000013
#0305b:0000001300000000
#03052:0000000000000013
#03356:63
#0335b:63
#03352:0000001300000000
#03357:0000001300000000
#03557:53
#03552:53
#03556:0000001300000000
#0355b:0000001300000000
#03656:00530000
#03657:0000000000000063
#03857:00530000
#0385b:0023
#03852:00530000
#03856:0023
#04158:0013
#04255:0013
#04952:0013
#0505b:0013
#0435b:0013
#05457:00530000
#05452:00530000
#0555b:23
#05556:23
#07856:0000000000000053
#07859:00450000
#07852:00350000
#07958:0013
#07957:0000000000000063
#07952:0013
#08552:00630000
#08055:0013
#0805b:0013
#08752:23
#08757:23
#08656:00630000
#0865b:00630000
#00452:53
#00456:00000000002300000000000000000000
#00455:0000000000000013
#00055:0000000000000013
#00258:0000000000000013
#0065b:6300000000000053
#00657:00230000
#00652:0000000000000063
#00755:0000000000230000
#00758:0000000000230000
#07752:00000014
#0775a:00000014
#09755:0000000000230000
#09758:0000000000230000
#00858:13
#04056:53
#0405b:13
#04052:00630000
#04857:63
#04852:13
#0485b:00530000
#08258:00000013
#08255:0000000000000013
#08455:00000013
#08458:0000000000000013
#0235b:0013
#05258:0000000000000013
#05255:00000013
#04552:00230000
#0455b:00230000
#04558:0053000000000000
#04555:0063000000000000
#05152:0013
#07358:0012
#000320:1300000000230000
#001360:0000001300000000
#001340:000000000033000000000000
#001330:000000000000000000000033000000000000000000000000
#001320:0023
#0023b0:1300000000230000
#003320:0000001300230000
#004320:1300000000230000
#004360:00000000005300000000000000000000
#005360:0000001300000000
#005340:000000000033000000000000
#005330:000000000000000000000033000000000000000000000000
#005320:0023
#0063b0:1323
#006370:00530000
#006320:0000000000000013
#007350:0000000000530000
#007320:00000026
#0063b1:0000000000000013
#007381:0000000000532600
#013321:1323000000000000
#0133b1:0000000013230000
#015381:0000001300000000
#0153b1:0000000000230000
#016321:13
#016361:00230000
#0173b1:13
#017371:00230000
#018381:13230000
#018320:00132300
#018320:0000000000000013
#019360:0023000000000000
#0203b0:13
#020370:00230000
#021320:13
#021360:00230000
#022350:13230000
#0223b1:00132300
#0223b1:0000000000000013
#023371:0023000000000000
#024381:1300002300000000
#0243b1:00000053000000000000000000000000
#025351:1300002300000000
#025321:00000053000000000000000000000000
#026381:00000013
#0263b1:0000000000000053
#027381:23
#027350:13230000
#027320:0053000000000000
#028320:13230000
#028360:0053000000000000
#0283b0:0000001300230000
#028370:0053
#033360:13
#033320:0000002300000000
#0333b1:13
#033371:0000002300000000
#035371:13
#0353b1:0000002300000000
#035320:13
#035360:0000002300000000
#036360:00130000
#036320:0023
#036370:0000000000000013
#0373b0:0023000000000000
#038370:00130023
#0383b0:0053
#038321:00130023
#038361:0053
#040361:1323
#040321:00330000
#0403b1:0000000000000013
#0413b1:0033000000000000
#041381:0023
#041321:0000000000000013
#042321:0033000000000000
#042351:0023
#042351:0000000000000013
#043321:0023000000000000
#044351:13230000
#044380:00132300
#045350:0013002300000000
#045320:00530000
#045381:0013002300000000
#0453b1:00530000
#0463b1:13230000
#046321:0000001300002300
#046380:00000013
#047380:23
#047351:13230000
#048371:1323
#0483b1:00330000
#048351:0000000000000013
#049351:0033000000000000
#049321:0023
#049381:0000000000000013
#050381:0033000000000000
#0503b1:0023
#050381:0000000000000013
#0513b1:0023000000000000
#052351:00132300
#052380:00001323
#054370:00130000
#0553b0:53
#055370:00000023
#054321:00130000
#055361:53
#055321:00000023
#0603b1:0013230000000000
#060321:0000000013230000
#061321:0013230000000000
#0613b1:0000000013230000
#0623b1:0013
#0623a1:000000000000003300000000
#062391:000033
#062381:00000023
#062350:00000013
#062340:000000000033
#062330:000000000000000000000033
#063320:23
#063380:0013
#063390:000000000000003300000000
#0633a0:000033
#0633b0:00000023
#063351:00000013
#063341:000000000033
#063331:000000000000000000000033
#064321:23
#0643b1:0013
#0643a1:000000000000003300000000
#064391:000033
#064381:00000023
#064350:00000013
#064340:000000000033
#064330:000000000000000000000033
#065320:23
#065380:0013
#065390:000000000000003300000000
#0653a0:000033
#0653b0:00000023
#065351:00000013
#065341:000000000033
#065331:000000000000000000000033
#066321:23
#066321:0013
#066331:000000000000003300000000
#066341:000033
#066351:00000023
#066380:00000013
#066390:000000000033
#0663a0:000000000000000000000033
#0673b0:23
#067320:0013
#067330:000000000000003300000000
#067340:000033
#067350:00000023
#0673b1:00000013
#0673a1:000000000033
#067391:000000000000000000000033
#068381:23
#0683b1:0013
#0683a1:000000000000003300000000
#068391:000033
#068381:00000023
#068350:00000013
#068340:000000000033
#068330:000000000000000000000033
#069320:23
#0703b0:0000000000000012
#0713b0:0032000000000000
#071380:0022
#071330:0000000000000012
#072330:0032000000000000
#072360:0022
#074350:12000022000000000000000000000000
#0753c0:0000001200220000
#076380:12220000
#076340:0000001200002200
#078360:0000000000000013
#079320:0023
#079370:0000000000000013
#0803b0:0023
#080350:0000000000000013
#081320:0023000000000000
#0823b0:0000000013230000
#082351:0000000000132300
#083381:0000001300000000
#0833b1:0000000000230000
#084321:0000000013230000
#084380:0000000000132300
#085320:00130000
#085350:00000000000000230000000000000000
#086360:00130000
#087320:53
#087360:00000023
#0863b1:00130000
#087371:53
#0873b1:00000023
#088321:13
#088361:0023000000000000
#0883b1:0013
#088371:0000000000230000
#089321:13
#089361:0023000000000000
#0893b1:0013
#089371:0000000000230000
#090361:13
#090321:0023000000000000
#0903b1:0000132300000000
#090371:0013
#0903b1:0000000000230000
#090321:0000000000001323
#091361:13
#091321:0023000000000000
#0913b1:0000132300000000
#091371:0013
#0913b1:0000000000230000
#091321:0000000000001323
#092371:13230000
#0923b1:0033000000000000
#092320:0000132300000000
#092360:00001323
#092320:0000000000330000
#0923b1:0000000000001323
#093371:13230000
#0933b1:0033000000000000
#093320:0000132300000000
#093371:0000001300000000
#0933b1:0000000000230000
#0943b1:1300000000230000
#094371:00000000005300000000000000000000
#0953b1:0000001300000000
#0953a1:000000000033000000000000
#095391:000000000000000000000033000000000000000000000000
#095371:0023
#095360:0000001300000000
#095340:000000000033000000000000
#095330:000000000000000000000033000000000000000000000000
#095320:0023
#095380:0000000000132300
#095351:0000000000001323
#096321:1323
#096361:00530000
#0963b1:0000000000000013
#097381:0000000000532600
#096320:0000000000000013
#097350:0000000000530000
#097320:00000026
