This file was generated by Ched 2.7.0.0.
#TITLE ""
#ARTIST ""
#DESIGNER ""
#DIFFICULTY 0
#PLAYLEVEL
#SONGID ""
#WAVE ""
#WAVEOFFSET 0
#JACKET ""
#REQUEST "ticks_per_beat 480"
#00002: 4
#BPM01: 182
#00008: 01
#TIL00: ""
#HISPEED 00
#MEASUREHS 00
#00018:1313
#0001b:0000130000000013
#00015:0013000000130000
#00012:0000001300000013
#00115:0013000000001300
#00118:0000130000130000
#0011b:0000000000000013
#00112:000000000000000000003333000000000000000000000000
#00318:0013000000000000
#00315:0000130000130000
#0031b:0000001300001300
#00312:00000013
#0151b:0000130000130000
#01515:0000001300001300
#01518:1300000000000013
#01512:0013000000000000
#0161b:0000001300000000
#01618:00000013
#01615:0000000000000013
#01612:13
#0171b:1300000000130000
#01715:00000013
#01718:0000000000000013
#01712:0000001300000000
#01812:13000013
#01816:00130000
#01915:0000130000000013
#01918:0000001300001300
#01912:0013
#02215:0000000000130000
#0221b:13000013
#02217:00130000
#02415:0000001300000013
#0241b:0000001300000000
#02418:00130013
#02412:23
#02410:41
#0251b:2300000000130000
#02515:00130013
#02518:0013001300000013
#02512:0000001300000000
#02612:1313
#0261b:0013000000130000
#02615:00130013
#02618:0000001300000000
#0271b:0000001300000000
#02718:0000000000130000
#02715:00000013
#02712:1313
#02915:0013000000130000
#0291b:00130013
#02912:0000001300000013
#02918:0013
#03215:00000013
#03218:0000000000000013
#03212:0013
#03219:00130000
#03214:00130000
#03217:0013
#0321b:23
#03216:23
#0331b:00000013
#03312:13
#03316:00000013
#03517:00000013
#03512:00000013
#0351b:13
#03615:00000013
#03616:23
#0361b:23
#03610:41
#03718:00130013
#03715:0000001300000013
#0371b:0013
#03712:0000000000130000
#0381b:0013000000000000
#03812:00130000
#03816:0000000013000014
#0431b:00000013
#04315:0000130000000013
#04312:0013
#04318:0000001300000000
#04415:0013
#04418:0000000000130000
#04412:00000013
#0441b:0000000000000013
#04518:0000000000130000
#04515:00000013
#0451b:0000000000000013
#04612:13
#04615:00130000
#0471b:00130000
#04718:0000000000130013
#04715:13000013
#04712:0000001300000000
#0531a:0000140000000014
#05312:00001414
#05316:0000001400000000
#05516:14
#0561b:1300001300001300
#05615:0013130013130013
#0691b:0013000000000000
#06918:00130013
#06915:0000001300130000
#06912:0013
#07618:0000000000000014
#07718:0014000000000000
#07714:1400001400000000
#0771a:0000000000140000
#07716:00000014
#07712:0000000000000014
#07812:0013
#0781b:0000000000130000
#07815:00000013
#0781a:24
#0781f:00210000
#07915:00130000
#0791b:0000001300000000
#07912:0014
#07910:0041
#0821b:1300000000130000
#08212:00130000
#08218:0000000013000024
#08215:0000001300000000
#08214:00000024
#0831b:0000131300130000
#08315:0000131300001300
#08318:0000000000000013
#08512:0000000000140000
#08516:00000014
#0851a:0000000000000014
#08612:0014000000000000
#0861a:00240000
#02118:00000013
#02115:1300000000000013
#0211b:0000001300000000
#02318:0000130000000013
#02315:0000001300001300
#0231b:0013
#0301a:0000001400140000
#03016:00140014
#03012:0014000000000014
#0341b:0000001300000000
#03416:00130000
#03418:00000013
#03415:0000000000130013
#03412:23
#03417:23
#03912:0000001414000000
#0391a:0000001414000000
#03916:0014000000000000
#0541a:0014000000000000
#05412:00140000
#0701b:12
#07013:12
#07019:00120012
#07015:0012
#0701f:11
#07315:00000012
#07319:0000000000000012
#07413:00120000
#0741a:0000000000120000
#07414:00000012
#07418:0000000000000012
#07415:12
#0741b:00120000
#07416:0012
#0751b:0012001200000000
#07513:00120000
#07515:0000000000120012
#07519:00000012
#08412:1300000000130000
#08415:0013
#0841b:00130000
#08418:0000001300002400
#08414:0000000000000024
#00215:1313
#00212:0000130000000013
#00218:0013000000130000
#0021b:0000001300000013
#00415:1313
#00412:0000130000000013
#00418:0013000000130000
#0041b:0000001300000013
#00518:0013000000001300
#00515:0000130000130000
#00512:0000000000000013
#0051b:000000000000000000003333000000000000000000000000
#00618:1300000000130000
#0061b:0000130000000013
#0061b:0000000000000013
#00615:0013000000001300
#00612:0000000013000013
#00612:0000000000000013
#00815:0013000000130000
#00818:00130013
#00812:0000001300000013
#0081b:2313
#01012:0013000000130000
#01018:00130013
#01015:0000001300000013
#0101b:2313
#01215:0013000000130000
#0121b:00130013
#01212:0000001300000013
#01218:2313
#01210:41
#01412:0013000000130000
#0141b:00130013
#01415:0000001300000013
#01418:2313
#02012:0000001300000000
#02015:00000013
#02018:1300000000000013
#06612:13
#06610:41
#08015:0000130000000023
#0801b:0000001300000000
#08012:0014
#08018:00000023
#02818:1300000000001414
#02815:0000131300000000
#0281b:0000131300000000
#02812:0000000000130000
#02814:00000000000000000000000000140000
#03117:0000330000130000
#0311b:13
#03119:00000033
#0311a:0033000000000000
#04118:0000000000000013
#04112:0013000000000013
#04113:00330000
#04115:0000003300000000
#04015:0000130000000013
#0401b:0000000000000013
#04018:0000001300001300
#04012:0013
#0401a:24
#04212:00000013
#0421b:0013000000000000
#0421a:00330000
#04218:0000003300000000
#0491b:0000003300000013
#04918:0013000000001300
#04915:0000000000000013
#04919:00330000
#04812:2400000013000013
#04815:00000013
#0481b:0013
#04818:0000130000000013
#04810:41
#08716:14
#05015:0013000000000023
#0501b:00000013
#05014:00330000
#05012:0000003300000000
#07214:00000012
#0721a:00000012
#08118:00230013
#08115:0000002300000013
#08112:0000000000130000
#0811b:0023
#0931b:0013000000130000
#09315:13000013
#09312:00130000
#09318:0000001300000000
#0931a:00000000000000000000000000000033
#08812:1313
#0881b:0013000000130000
#08815:00130013
#08818:0000001300000013
#09015:1313
#09018:0013000000130000
#09012:00130013
#0901b:0000001300000013
#09215:1313
#0921b:0013000000130000
#09212:00130013
#09218:0000001300000013
#0941b:0000130000000013
#09415:0013000000130000
#09412:0000001300000013
#09418:0013
#09515:0013000000001300
#09518:0000130000130000
#0951b:0000000000000013
#09512:000000000000000000003333000000000000000000000000
#09615:13
#09612:0000130000230013
#09612:0000000000000013
#09618:0013000013000000
#0961b:0000000000230013
#0961b:0000000000000013
#00715:00000000000000130000000000000000
#00718:00000000000000130000000000000000
#09715:00000000000000130000000000000000
#09718:00000000000000130000000000000000
#0521b:1313
#05218:00130014
#05215:1313
#05212:00130000
#05214:0000000000000014
#05115:0000002300001300
#05118:0000230000000013
#0511b:0023
#05718:1300001300001300
#05712:0013130013130013
#05815:1300001300001300
#0581b:0013130013130013
#05912:1300001300001300
#05918:0013130013130013
#06015:13
#06018:0000000000000013
#06118:0000000000000013
#06115:13
#01652:63
#0175b:53
#01952:0013
#0235b:0013
#02755:00000013
#02752:53
#03052:0000000000000014
#0305a:0000001400000000
#03352:63
#03355:0000001300000000
#03852:00530000
#03856:0023
#05452:00640000
#05556:24
#07952:0014
#01856:00230000
#01852:53
#02058:53
#02155:63
#0225b:63
#02257:00230000
#06652:13
#08052:0014
#02655:00000053
#0315b:63
#03157:0000000000230000
#0355b:53
#03558:0000001300000000
#04257:0013
#0425b:0053000000000000
#04156:0013
#04152:0053000000000000
#04352:0013
#0495b:0013
#04958:0053000000000000
#05052:0013
#05055:0053000000000000
#08756:24
#0865a:00640000
#0405a:14
#04852:14
#0515b:0013
#07855:00160000
#0785a:54
#08454:0000000000000014
#08258:0000000000000014
#00755:00000000000000230000000000000000
#00758:00000000000000230000000000000000
#00652:0000000000000063
#0065b:0000000000000053
#09755:00000000000000230000000000000000
#09758:00000000000000230000000000000000
#09652:0000000000000063
#0965b:0000000000000053
#05254:0000000000000014
#06858:13
#001320:000000000000000000133333000000000000000000000000
#001350:0023
#0053b0:000000000000000000133333000000000000000000000000
#005380:0023
#006320:0000000000000013
#007350:00000000000000530000000000000000
#007320:00000023
#0063b1:0000000000000013
#007381:00000000000000530000000000000000
#0073b1:00000023
#0093b1:1300002300000000
#009381:0033330000000000
#009351:0000000013000023
#009321:0000000000333300
#011381:1300002300000000
#0113b1:0033330000000000
#011321:0000000013000023
#011351:0000000000333300
#0133b1:1300002300000000
#013381:0033330000000000
#013351:0000000013000023
#013321:0000000000333300
#016321:13
#016351:00230000
#0173b1:13
#017381:00230000
#018321:1323
#018361:00330000
#018381:0000000000000013
#0193b1:0023000000000000
#020381:13
#0203b1:00230000
#021351:13
#021321:00230000
#0223b1:1323
#022371:00330000
#022351:0000000000000013
#023321:0023000000000000
#026351:00000013
#027321:33
#027351:00230000
#0313b1:1300000000000023
#0313a1:0033000000000000
#031371:0000333300330000
#031391:00000033
#033321:13
#033351:0000002300000000
#0353b1:13
#035381:0000002300000000
#036321:00132300
#0363b1:0000000000000013
#0373b1:0023000000000000
#038321:00130023
#038361:0053
#041321:0013000000000000
#041331:00330000
#041351:0000003300000000
#041361:0023
#0423b1:0013000000000000
#0423a1:00330000
#042381:0000003300000000
#042371:0023
#042381:0000000000000013
#0433b1:0023000000000000
#044381:13230000
#045351:0013002300000000
#0463b1:0000001300002300
#049381:0013000000000000
#049391:00330000
#0493b1:0000003323000000
#050351:0013000000000000
#050341:00330000
#050321:0000003323000000
#050351:0000000000000013
#051321:0023000000000000
#054321:00140000
#055361:54
#055321:00000024
#0603b1:0013000000000000
#060391:00330000
#060371:0000002300000000
#060321:0013
#060341:0000000000330000
#060361:00000023
#0613b1:0013000000000000
#061391:00330000
#061371:0000002300000000
#061321:0013
#061341:0000000000330000
#061361:00000023
#062321:130000000000000000333333
#062331:003300000000000033000000
#062341:000033000000003300000000
#062351:000000333333330000000000
#063321:3333
#063331:003300000033003300000000
#063341:003333003300
#063351:00330023
#0643b1:130000000000000000333333
#0643a1:003300000000000033000000
#064391:000033000000003300000000
#064381:000000333333330000000000
#0653b1:3333
#0653a1:003300000033003300000000
#065391:003333003300
#065381:00330023
#066381:00130000
#066391:000000003300000000000033
#0663a1:000000000033000000003300
#0663b1:000000000000333333330000
#067381:3333
#067391:003300000033003300000033
#0673a1:003333003333
#0673b1:00330033
#068381:23
#068321:00130033
#068331:000033003333
#068341:000000000033003300000033
#068351:0033
#069351:23
#070351:0000000000000012
#071351:0032323222000000
#071391:0000000000000012
#072391:0032323222000000
#072341:0000000000000012
#073341:0032323222000000
#0723a0:0000000000000012
#0733a0:0032323222000000
#076390:12220000
#076350:0000001200002200
#0783a0:14
#078350:00260000
#078380:0000000000000013
#079380:0023000000000000
#079380:0000000000000013
#080380:0023000000000000
#080350:0000000000000013
#081320:0023000000000000
#0853a0:00142400
#0863a0:00140000
#087360:54
#0873a0:00000024
#089320:1300002300000000
#089350:0033330000000000
#0893b0:0000000013000023
#089380:0000000000333300
#091350:1300002300000000
#091320:0033330000000000
#091380:0000000013000023
#0913b0:0000000000333300
#093380:0000000000000013
#0933a0:00000000000000000000000000000033
#0943b0:23
#095320:000000000000000000133333000000000000000000000000
#095350:0023
#096320:0000000000000013
#097350:00000000000000530000000000000000
#097320:00000023
#0963b1:0000000000000013
#097381:00000000000000530000000000000000
#0973b1:00000023
