This file was generated by Ched 2.7.0.0.
#TITLE ""
#ARTIST ""
#DESIGNER ""
#DIFFICULTY 0
#PLAYLEVEL
#SONGID ""
#WAVE ""
#WAVEOFFSET 0
#JACKET ""
#REQUEST "ticks_per_beat 480"
#00002: 4
#BPM01: 182
#00008: 01
#TIL00: ""
#HISPEED 00
#MEASUREHS 00
#01517:0000130000131313
#01512:1300130000130000
#0151b:0000001300000013
#01516:0013001300000000
#01617:1300001300000000
#0161b:00130000
#01612:1300001300000013
#01616:0013000000001313
#0171b:1300001300130000
#01718:00000013
#01715:0000000000000013
#01716:1300001300000000
#01712:0000130000130000
#01717:0013000000000000
#01812:13000013
#0181b:0000000013000013
#01816:0000000000000013
#01817:00000013
#01917:0013001300000000
#01916:0000000013001313
#0191b:0013
#01912:0000130000000013
#02212:0000000013000013
#0221b:13000013
#02217:0000000000000013
#02216:00000013
#02214:0000000000130000
#0241b:1300001300001300
#02419:0000000000000013
#02416:1300000000131300
#02410:41
#02517:1300000000131300
#02512:1300001300001300
#02514:0033000000000013
#02519:0033000000000000
#02612:0013000013001300
#02617:00000013130000001300000013000000
#0261b:0000001300130013
#02616:13
#02816:13000000000000001300000000140000
#02812:0013001300130014
#0281b:13131300
#02817:0013001300000000
#0281a:00000014
#02916:0013000000130000
#02917:0000001300000013
#0291b:0013
#02912:00130013
#03017:0013131300000000
#03012:0013001300001300
#0301b:0000130000130013
#03016:0000000000131313
#03216:2400002400141400
#0321b:2313000013000000
#03212:0000132300000013
#03516:14120014
#03512:1300000000130013
#0351a:0000001400000000
#03515:0000001400000000
#0351b:00120000
#03617:0013
#03616:2414140000001313
#03612:00131300
#0361b:2300000000000013
#03610:41
#0371b:00130000
#03717:0013000000000000
#03716:00130000
#03812:0013130000000013
#0381b:0013130000000013
#03815:0013
#03818:0013
#04012:2300001313000013
#04016:0014140013131313
#0401b:2300001300001300
#0421b:0000130000001313
#04212:0013130013001300
#04216:0000000000000013
#04217:00000013000000000000000000000000
#04215:0000001600000000
#04218:0013
#04316:00131300
#04312:0000001300001300
#04314:0000000000000013
#04317:00000013
#04418:0000000000130000
#04415:00000013
#04412:0000000000000013
#0441b:13
#04416:13
#04417:00130000
#04517:0013000013001300
#04516:00130000
#04512:0013000013001300
#04519:0000000000000013
#0451b:0000130000130000
#04515:0000001300000000
#04612:00000000130000000013000000000000
#0461b:1300001300000000
#04616:1300001300000014
#0471b:0000130000130013
#04716:0014001400140014
#04712:0000001300001300
#05217:13
#0521a:0000140000000014
#05212:1300140000140000
#05216:0000001414000000
#05317:00131300
#0531b:0000001300000013
#05316:0000001300000013
#05312:00131300
#05313:24
#05319:24
#05818:0013130000000013
#05815:0000001300131300
#05812:00131300
#0581b:13000013
#06217:13
#06212:001300000000001313130000
#06215:000013000013000000000013
#0621b:00130000
#06218:000013130013
#06612:13130013
#06618:130000001300001300001300
#06615:000000000013000013000013
#0661b:0013
#06610:41
#06915:00000013
#06918:13
#09312:1300130000130000
#09316:00001300000013000000000013000012
#09318:0000000000000012
#09317:0000000000130000
#0931b:1300001300001300
#0961a:12121200
#09618:0012000000000000
#09612:0012000000120012
#09614:12120000
#09616:0000001200000000
#0961c:0000000000120012
#06016:0014001400140014
#06012:00131313
#0601b:13130013
#0941a:12121200
#0941c:0012000000000012
#09414:12121200
#09416:0012000000120000
#09412:0000001200000012
#09418:0000001200000000
#09516:0012000000120000
#09513:00120000
#09518:0000120000000012
#0951b:0012000000000000
#0951c:0000001200000000
#09515:000000000012000000000000
#09519:000000000000000000000012000000000000000000000000
#09512:0012
#02115:00000013
#02118:0000000000000013
#02112:13130000
#02116:0000001300000000
#02117:13
#0211b:0013001300000000
#02312:00001313
#02314:0000000000000013
#02316:0013001300000000
#0231b:00130000
#02317:00001313
#02717:13131300
#0271b:0013001300130000
#02712:13131300
#02716:0013001300130000
#0311c:1200000000120000
#03112:0000000000000012
#03119:0000001200000000
#03915:0013131616000000
#03918:00000013000000000000000000000000
#0391b:0000001300000000
#03912:0013
#03916:00000024
#0511b:0000002300001300
#05114:0000000000000013
#05116:0023000000001300
#05119:0000000000000013
#05117:00232300
#0701c:12
#07012:1200000000000012
#07014:00000012000000001200000000000000
#0701a:00000000120000120000000000000000
#07016:00000012
#07018:0000000000120000
#0701f:11
#07114:0012000012000000
#07112:0000001200000000
#07116:00120000
#0711c:0000000000000012
#0771a:1212000000000000
#07719:0000141400000013
#07714:1212000000000013
#07713:0000141400000000
#07712:0000000016162c00
#07718:0000000016160000
#0781b:2300000013000013
#07812:2313
#07816:0000000000141413
#07818:0013000000000000
#07815:0013000000000000
#0781f:00210000
#0791b:0013001300001300
#07915:00131300
#07912:1300001300001313
#07918:00000000001300001300000000000000
#07917:0000000000000013
#07910:0041
#0831b:0000001300001300
#08316:0000001300001300
#08317:0000130000130013
#08312:0000130000130013
#08313:14
#08319:14
#0851b:00000000130000130000000013000000
#08512:00131313
#08516:0000000000130000
#08517:0000000000000013
#08515:00000000000000130000000000000000
#08518:0013
#08513:24
#08519:24
#07212:00000012
#07219:0000000000000012
#0721a:0012000012000000
#0721c:0000001200001200
#07218:00120000
#07215:0000000000000012
#07312:0012000000000000
#07316:0012
#0731a:0000000000000012
#07318:00000012
#07412:00120000
#07416:1200001200001200
#07418:00000012000000001200000000000000
#0741c:1200001200001200
#07414:0000000012000012
#0741a:0000000000120012
#07512:0000001200000012
#07516:0012000000120000
#0751a:00000012
#07514:00120000
#07518:0000001200000012
#07614:00120000
#0761a:0000001200001200
#07612:12000000000000000012000000000000
#07618:12
#0761c:0012000000000000
#07616:0000001200000000
#0841b:13
#08416:13000000000000001400001400000000
#0841a:0000001400142400
#08412:00000000000000140014000000002400
#00017:1300001300000000
#0001b:0000130000130013
#00019:0013000013000000
#00016:0000000000000013
#00112:0013000013000013
#00117:0013130000000000
#00116:0000000000131313
#0011b:0000001300001300
#00115:000000000013000000000000
#00118:000000000000000000000013000000000000000000000000
#0031b:0013000000130000
#00316:0013131300000000
#00312:0000001300001300
#00317:00000013
#00814:0013001300130013
#0081b:23130013
#00819:0000001300000013
#00817:0013
#00816:13000013
#00812:00131300
#00917:1313
#00915:0013000000130000
#0091b:00130013
#00912:13131313
#00919:0000001300000013
#00612:1300000000000013
#00616:00130000
#00614:0013000000000000
#00617:0013
#00619:0000000000130000
#0061b:0000000000001313
#00212:0000130000130013
#00217:0000000000000013
#00216:1300001300000000
#00214:0013000013000000
#0041b:1300001300000000
#00417:0000130000130013
#00419:0013000013000000
#00412:0000000000000013
#0051b:0013000013000013
#00516:0013130000000000
#00517:0000000000131313
#00512:0000001300001300
#00518:000000000013000000000000
#00515:000000000000000000000013000000000000000000000000
#00715:0000000000130000
#00718:0000000000130000
#0201b:1300130000000013
#02017:0000001300001313
#02016:13
#02012:0013001300000000
#03318:00120000
#03316:14000014
#0331b:1300000000130013
#03312:0000001400000000
#03317:0000001400000000
#03313:00120000
#03416:2400002400141400
#03412:2313000013000000
#0341b:0000132300000013
#0411b:0013130013000013
#04116:00000013000000000000000000000000
#04112:00130000
#04115:0000001613000000
#04117:0000000000000013
#05012:0000130013001323
#05019:00000013
#0501b:0013130000130000
#05016:00000013000000000000000000000000
#05018:0013
#05015:0000001600000000
#05017:0000000000000023
#05918:0013130000000013
#05915:0000001300131300
#05912:00131300
#0591b:13000013
#06116:0014001400140014
#06116:0000000000000014
#06112:00131313
#0611b:13130013
#06318:13000013
#0631b:001300000000000000000013
#06316:000013000000001300000000
#06319:00130000
#06314:001300
#06317:000000000013000000000000
#06312:000000131300
#06315:000000000013
#0671b:13130013
#06718:001300000000000000000013
#06715:001300000013
#06712:001300
#06717:000000000013000000000000
#06714:0013
#06719:000000000000001300000000
#06716:000013
#06812:130000000000001300000000
#0681b:130000000013130000001300
#06818:00130013
#06815:000000001300000013000013
#08012:0013001300002323
#08018:00131300
#0801b:1300001300002300
#08015:00000000001300001300000000000000
#08017:0000000000000023
#08116:0023000000001300
#08112:0000000000130013
#08117:00232300
#0811b:0000002300000000
#08216:13000000000000001400001400000000
#0821b:0000131300000000
#08212:0000131300142400
#0821a:00000000000000000014000000002400
#08214:0013000000000000
#0881b:1300001300131300
#08816:13
#08812:0013130013000013
#08817:0000000013000013
#0891b:1300001300131300
#08916:13
#08912:0013130013000013
#08917:0000000013000013
#0901b:1313001313000000
#09012:1300000000130013
#09017:00130000
#09016:00001313
#0911b:1313001313000000
#09112:1300000000130013
#09117:00130000
#09116:00001313
#0921b:1300001313001300
#09212:1300130013000013
#09216:0013001300000000
#09217:0000000000130013
#09716:0000000000120000
#09718:0000000000120000
#01214:0013000000130013
#01217:00130013
#01219:0013001300130000
#0121b:2313
#01212:00130013
#01216:1313
#01210:41
#0131b:13130013
#01319:0000001300000013
#01316:0000000000130000
#01312:00131313
#01314:0000001300000013
#01317:0013000000000000
#01417:1313
#01419:0013000000130013
#01416:00130013
#01414:0013001300130013
#01412:2313
#0141b:00130013
#0481b:2300001313000013
#04815:00000013000000000000000000000000
#04817:0000000013131313
#04818:0013130000000000
#04812:2300001300001300
#04810:41
#04912:0013130000001313
#04917:00000013000000000000000000000000
#04915:0000001613000000
#0491b:00131313
#04916:0000000000000013
#01019:0013001300130013
#01012:23130013
#01014:0000001300000013
#01016:0013
#01017:13000013
#0101b:00131300
#01116:1313
#01118:0013000000130000
#01112:00130013
#0111b:13131313
#01114:0000001300000013
#05416:0014140000000000
#05412:0014140000000000
#0551a:14
#05516:14
#05712:1313001300131300
#05717:13000013
#0571b:0013130013130013
#05716:00131300
#0561b:0013130013130013
#05612:1313001300131300
#05617:13000013
#05616:00131300
#06417:130000000013000000000000
#06412:001300000000000000130000
#06415:000013000000000000000013
#06419:000000130000000013000000
#06414:001300
#0641b:0013
#06416:000000000000001300000000
#06418:000000000013
#0651b:130000000000130000000013
#06517:001300001300000000000000
#06513:001300000000
#06515:000000130000001300001300
#06519:000000000013000000000000
#06512:000013
#06518:00000013
#08616:0014240000000000
#0861a:0014240000000000
#08712:14
#08716:14
#01652:63
#01656:0023000000000000
#0945a:62626200
#0945c:0022000000000012
#09452:0000000000000012
#09458:0000002200000000
#09652:0022000000000062
#09654:52520000
#09656:0000002200000000
#0965c:0000000000000052
#01856:0000000000000063
#01956:0013
#0195b:0013
#02757:63636343
#0275b:0023002300230000
#02752:63636343
#02756:0023002300230000
#02856:63
#02852:0023000000000014
#02857:0000005300000000
#0285b:0023
#03057:0000001300000000
#03052:0000001300000000
#03056:0000000000000013
#0305b:0000000000000013
#03657:0053
#03656:0000000000000063
#03852:00530000
#03855:0023
#0385b:00630000
#03858:0023
#0525a:0000540000000044
#05256:0000002454004400
#05252:0000000000240000
#07856:0000000000000053
#07858:0023460000000000
#0785b:53
#07855:0023000000000000
#07852:63360000
#00652:0000000000000063
#0065b:0000000000000053
#0005b:0000000000000013
#00056:0000000000000013
#00252:0000000000000013
#00257:0000000000000013
#00352:0000005300000000
#00457:0000000000000013
#00452:0000000000000013
#00755:0000000000230000
#00758:0000000000230000
#00852:00130000
#00856:00000013
#0085b:13
#00952:00130013
#0175b:53
#01757:0023000000000000
#02056:63
#02052:0023000000000000
#02157:53
#0215b:0023000000000000
#02357:0013
#02352:0013
#02257:0000000000000053
#0395b:0000004300000000
#03952:0033
#04052:0000000000000053
#0405b:13
#0415b:0000000043000063
#0435b:0043
#04456:53
#04457:00530000
#04557:0053000000000000
#0455b:00230000
#04555:0000006300000000
#04552:0023
#0465b:5300001300000000
#04656:1300005300000000
#04652:00000000000000000023000000000000
#05152:0033
#04256:0000000000000023
#04252:0033
#05357:00636300
#05352:00636300
#05356:0000005300000000
#0535b:0000005300000000
#05858:00130000
#05855:00000013
#05958:00130000
#05955:00000013
#0605b:00130000
#06052:00000013
#0615b:00130000
#06152:00000013
#06652:00130013
#0675b:00130013
#0715a:0042
#07254:0032
#07456:62
#07558:0000006200000000
#07658:62
#07656:0000006200000000
#0765c:0022000000000000
#07652:00000000000000000022000000000000
#07952:23
#07955:0033
#07958:0043
#07957:0000000000000063
#08055:0033
#0805b:23
#08058:0043
#08057:0000000000000023
#0825b:43
#0825a:0000000000000044
#08252:00000034
#08456:63
#0845b:63
#0845a:00000044
#08452:0000000000000034
#08857:00430000
#08856:00000033
#08957:00430000
#08956:00000033
#09057:00430000
#09056:00000033
#09157:00430000
#09156:00000033
#09756:0000000000220000
#09758:0000000000220000
#01252:00130013
#01352:00000013
#0135b:00130000
#01552:00130000
#0145b:00130013
#0485b:0000000000000063
#04852:13
#04955:0033
#04952:0000000000000053
#0495b:0043
#05058:0043
#05052:0033
#05057:0000000000000023
#07356:0012
#07752:0000001c
#01057:00000013
#0105b:00130000
#0115b:00130013
#0245b:53
#02456:53
#02452:0000001300000000
#02457:00130000
#02552:53
#02557:53
#02556:00130000
#0255b:0000001300000000
#03555:0000001400000000
#0355a:0000001400000000
#03352:0000001400000000
#03357:0000001400000000
#0555a:24
#05556:24
#05456:00540000
#05452:00540000
#0575b:00130000
#05752:00000013
#0565b:00130000
#05652:00000013
#08752:24
#08756:24
#08656:00640000
#0865a:00640000
#09256:00000033
#09257:00430000
#09252:00330000
#0925b:00000043
#09357:00430000
#09352:00330000
#000320:1300003300000000
#000360:0000330000230000
#0023b0:1300003300000000
#002370:0000330000230000
#003320:0000001300000000
#003360:0000000000230000
#004360:1300003300000000
#004320:0000330000230000
#006370:13
#0063b0:00230000
#006320:0013
#006360:00000023
#006320:0000000000000013
#007350:0000000000530000
#007320:00000023
#0063b1:0000000000000013
#007381:0000000000530000
#0073b1:00000023
#013361:13
#013321:0023000000000000
#013371:0013
#0133b1:0000000000230000
#015371:13
#0153b1:0023000000000000
#016321:13230000
#016361:0053000000000000
#0173b1:13230000
#017371:0053000000000000
#0183b1:13230000
#018320:00132300
#018360:0000000000000013
#019320:0023000000000000
#020360:13230000
#020320:0053000000000000
#021370:13230000
#0213b0:0053000000000000
#022320:13230000
#0223b1:00132300
#022371:0000000000000013
#0233b1:0023000000000000
#024361:13
#024321:0000532300000000
#0243b0:13
#024370:00230000
#025371:13
#025391:0033000000000000
#0253b1:0000532300000000
#025320:13
#025340:0033000000000000
#025360:00230000
#0263b1:13
#026371:0023000000000000
#026321:00130000
#026361:0000002300000000
#027371:13333323
#0273b1:0033003300330000
#027320:13333323
#027360:0033003300330000
#028360:13230000
#028320:0053000000000000
#028370:0000001300230000
#0283b0:0053
#0293b0:0000132300000000
#029320:0000000013230000
#0293b0:0000000000001323
#031320:1222000000000000
#031391:0012220000000000
#031350:0000122200000000
#031360:0000000000122200
#031381:0000000000001222
#036371:0013
#0363b1:00000023
#036361:0000000000000013
#037321:0023000000000000
#037321:0000001300330023
#037361:00003333
#037370:0000001300330023
#0373b0:00003333
#038320:00130023
#038350:0053
#0383b1:00130023
#038381:0053
#040321:0000000000000013
#041361:0023000000000000
#0413b1:0000000000000013
#042371:0023000000000000
#042361:0000000000000013
#043321:0023000000000000
#043370:0013003300000000
#0433b0:00332300
#044360:13
#044320:00230000
#044371:00130000
#0443b1:0023
#044320:0000000013230000
#0443b0:0000000000001323
#045370:0013000000000000
#0453b0:00530000
#045380:0000002300000000
#045351:0000001300000000
#045321:0053
#045361:0000000000230000
#0463b1:13
#046371:00230000
#046361:0000001300002300
#046321:00000000000000000053000000000000
#0463b0:00000013
#0473b0:23
#047321:13230000
#0483b1:0000000000000013
#049371:0023000000000000
#049321:0000000000000013
#050361:0023000000000000
#050371:0000000000000013
#0513b1:0023000000000000
#051360:0013003300000000
#051320:00332300
#0523a0:00142400
#052360:0000003400000000
#052361:00001424
#052321:0000000000340000
#053371:00133300
#0533b1:0000003300002300
#053320:00133300
#053360:0000003300002300
#054360:00140000
#0553a0:54
#055360:00000024
#054321:00140000
#055361:54
#055321:00000024
#058351:1323000000000000
#058381:0000000013230000
#059351:1323000000000000
#059381:0000000013230000
#060361:13
#060321:0023000000000000
#060371:0013
#0603b1:0000000000230000
#061361:13
#061321:0023000000000000
#061371:0013
#0613b1:0000000000230000
#069321:1323000000000000
#069380:0013230000000000
#069351:0000132300000000
#0693b0:0000001323000000
#069321:0000000013230000
#069380:0000000000132300
#0703a0:0000000000000012
#0713a0:0032000022000000
#0713c0:00320000
#071380:0000003200000000
#071340:0000000000000012
#072340:0032000022000000
#072320:00320000
#072360:0000003200000000
#0733c0:0012000000000000
#073380:00220000
#073361:00120000
#073321:0000002200000000
#073380:0000001200000000
#0733c0:0022
#074360:12
#074320:00000022000000000000000000000000
#075380:0000001200000000
#0753c0:0000000000220000
#076380:12220000
#0763c0:0052000000000000
#076360:0000001200002200
#076320:00000000000000000052000000000000
#0783b0:13
#078380:0053260000000000
#078321:13260000
#078351:0053000000000000
#078361:0000000000000013
#079321:53
#079361:0023000000000000
#079371:0000000000000013
#0803b1:53
#080371:0023000000000000
#080371:0000000000000013
#0813b1:0023000000000000
#081360:0013003300000000
#081320:00332300
#081370:0000000000130033
#0813b0:00000033
#0823b0:23
#0843b0:13
#084370:00230000
#084361:13
#084321:00230000
#086361:00140000
#087321:54
#087361:00000024
#0863a0:00140000
#087360:54
#0873a0:00000024
#088370:0013230000000000
#088360:0000000000132300
#089370:0013230000000000
#089360:0000000000132300
#090360:0013002300000000
#090320:00330000
#090370:0000000000130023
#0903b0:00000033
#091360:0013002300000000
#091320:00330000
#091370:0000000000130023
#0913b0:00000033
#0923b0:0013000000000000
#092370:00230000
#092320:0000000000130000
#092360:00000023
#0933b0:0013000000000000
#093370:00230000
#0943a0:12525200
#0943c0:0052000000220000
#094380:0000005200000000
#095380:0000000000120000
#0953b0:00000022
#095331:00000012
#095361:0000000000000022
#096341:12522200
#096321:0052000000000000
#096361:0000005200000000
#096321:0000000000000012
#097361:0000000000520000
#097321:00000022
#0963c0:0000000000000012
#097380:0000000000520000
#0973c0:00000022
