This file was generated by Ched 2.7.0.0.
#TITLE ""
#ARTIST ""
#DESIGNER ""
#DIFFICULTY 0
#PLAYLEVEL
#SONGID ""
#WAVE ""
#WAVEOFFSET 0
#JACKET ""
#REQUEST "ticks_per_beat 480"
#00002: 4
#BPM01: 182
#00008: 01
#TIL00: ""
#HISPEED 00
#MEASUREHS 00
#0081a:14
#00814:0014
#01212:0014
#0121a:14
#01210:41
#02812:14
#02818:0014
#04714:1414
#04718:00140014
#01012:14
#01018:0014
#01412:14
#0141a:0014
#01712:14
#02012:14
#0211a:14
#02514:0014
#0251a:14
#0241a:14
#02414:0014
#02410:41
#0261a:14
#02617:00000014
#02618:0034
#02912:14
#02918:0014
#03012:14
#03014:0034
#04014:00140000
#04019:0014
#04013:00000014
#0401a:24
#04213:0014
#0421a:00140000
#04212:14
#04219:0014
#04819:00000014
#04818:00140000
#04813:0014
#04812:24
#04810:41
#04914:14
#0491a:00140000
#04915:0014
#06612:0014
#0661a:00000014
#06618:24
#06610:41
#06714:14
#0671a:00000014
#06712:0014
#06718:00140000
#0681a:0014
#06812:00000014
#06814:24
#06916:14
#0741a:14
#07414:0014
#07518:14
#07512:0014
#0761a:14
#07812:16
#07814:0014
#07818:00260014
#0781f:00210000
#07912:14
#0791a:00140000
#07914:0014
#07910:0041
#08018:1616
#08012:00160000
#08212:00140000
#0821a:14
#08214:0000000000140000
#08218:00001414
#08412:00140000
#08418:00001414
#0841a:14
#08414:0000000000140000
#08314:00001414
#08312:14
#0831a:00140000
#08318:0000000000140000
#0541a:14141400
#0541a:0014
#05514:14141400
#05618:14141400
#05712:14141400
#0581a:14140000
#05814:0014
#05918:14140000
#05912:0014
#0601a:14
#06014:00141400
#06118:14
#06112:00141400
#04117:0014
#04112:00140000
#04118:14
#08912:14
#08918:00140000
#0891a:00000014
#08914:0014
#0931a:14
#09318:0014
#09314:00140000
#09312:00000014
#08618:00140000
#0861a:00000014
#08619:1414
#08719:1414
#08718:00140000
#08812:14
#0881a:0014
#09014:00140000
#09012:00000014
#09013:2414
#09113:1414
#09114:00140000
#0921a:14
#09212:0014
#0701a:14
#0701f:11
#07112:14
#07218:14
#07314:14
#05218:14
#05214:00140000
#0521a:0014
#05212:00000014
#04312:00140000
#0431a:14
#04319:0014
#04313:0014
#04615:16161600
#04614:0016000000160000
#04616:0000001600000000
#05019:0014
#05012:00140000
#0501a:14
#05013:0014
#05112:14
#0511a:00140000
#05113:0014
#05119:0014
#07717:0014
#07718:00000026
#09612:14
#0941a:14
#0161a:24
#08112:2626
#08118:00260000
#05313:24
#05319:24
#08519:24
#08513:24
#02718:34
#04512:0034
#04513:00340000
#0441a:0034
#04419:00340000
#03610:41
#0265a:64
#02657:00000024
#03052:54
#03955:0016
#06956:14
#0765a:64
#08658:00240000
#0865a:00000024
#08659:6454
#08759:6464
#08758:00240000
#09054:00240000
#09052:00000024
#09053:5464
#09153:5464
#09154:00240000
#07258:54
#07152:54
#07354:64
#0705a:64
#04655:66566600
#04654:0026000000260000
#04656:0000002600000000
#08152:0016
#08058:0016
#09652:54
#0945a:54
#07757:0024
#07758:00000016
#0003a0:1400000000000024
#002320:1400000000000024
#004380:1400000000000024
#006340:1400000000000024
#0093a0:14342400
#011320:14342400
#013380:14342400
#015340:14342400
#018380:14
#0183a0:0034
#019380:34
#0193a0:0024
#022340:14
#022320:0034
#023340:34
#023320:0024
#0263a0:14
#026380:0034
#026370:00000054
#027380:34
#0273a0:0024
#030320:14
#030340:0034
#031350:24
#0323a0:1400002400000000
#033320:1400002400000000
#034380:1400002400000000
#035340:1400002400000000
#036380:14
#0363a0:0000002400000000
#037340:14
#037320:0000002400000000
#038350:1600363600363636
#039350:0036003626000000
#044380:14
#044390:00340000
#0443a0:00003424
#045340:14
#045330:00340000
#045320:00003424
#046350:16565626
#046340:0056000000560000
#046360:0000005600000000
#0623a0:14
#062390:00340034
#062380:0034
#0633a0:34
#063390:00340000
#063380:00003424
#064320:14
#064330:00340034
#064340:0034
#065320:34
#065330:00340000
#065340:00003424
#0703a0:14
#070380:0024
#071320:14
#071340:0024
#072380:14
#0723a0:0024
#073340:14
#073320:0024
#0763a0:14
#076370:00000054
#077370:3434343434000000
#077380:00000026
#086390:1434
#086380:00540000
#0863a0:00000054
#087390:3434
#087380:00540000
#0873a0:00000024
#090330:1434
#090340:00540000
#090320:00000054
#091330:3434
#091340:00540000
#091320:00000024
#0943a0:14
#094380:0000000000000034
#095380:0024
#096320:14
#096340:0000000000000034
#097340:00000024
