This file was generated by Ched 2.6.4.0.
#TITLE ""
#ARTIST ""
#DESIGNER ""
#DIFFICULTY 0
#PLAYLEVEL
#SONGID ""
#WAVE ""
#WAVEOFFSET 0
#JACKET ""
#REQUEST "ticks_per_beat 480"
#00002: 4
#BPM01: 154
#00008: 01
#TIL00: ""
#HISPEED 00
#MEASUREHS 00
#00419:14
#00519:14
#00613:14
#00918:14
#00910:41
#01018:14
#01112:14
#01212:14
#0131a:14
#0141a:14
#01514:14
#01614:14
#0171a:14
#01814:14
#02112:14
#02218:14
#01918:14
#02012:14
#02018:0014
#02314:14
#0231a:0014
#02414:14
#02518:2616
#02510:41
#02612:1616
#02712:0016
#02718:16
#03312:1616
#03418:1616
#03512:16
#03518:0016
#03510:41
#03718:16
#03712:0016
#03818:16
#03812:0016
#03918:16
#03912:0016
#02912:1616
#03118:1616
#04012:00160000
#04018:2616
#05614:0014
#0561a:14
#05912:14
#05918:0014
#06112:0016
#06118:26
#0611f:21
#06218:1616
#06210:41
#06312:1616
#06918:0016
#06912:16
#07012:1616
#07118:1616
#07110:41
#07318:1616
#07412:1616
#07518:16
#07512:0016
#06512:16
#06518:0016
#06718:16
#06712:0016
#07612:00160000
#07618:2616
#07713:14
#07819:14
#07913:14
#0531f:11
#05318:24
#05312:24
#05414:24
#0541a:24
#05518:24
#05512:24
#05712:24
#05718:24
#0581a:24
#05814:24
#07212:26260000
#06418:26260000
#02818:26260000
#03612:26260000
#04510:41
#001390:14
#003390:24
#007330:14
#008330:24
#030320:1626
#032380:1626
#041330:14
#042330:24
#043390:14
#044390:24
#045340:14
#046320:34
#047320:34
#048340:24
#049380:14
#0503a0:34
#0513a0:34
#052380:24
#060340:1424
#066320:1626
#068380:1626
#080390:14
#081390:00000024
