This file was generated by Ched 2.6.4.0.
#TITLE ""
#ARTIST ""
#DESIGNER ""
#DIFFICULTY 0
#PLAYLEVEL
#SONGID ""
#WAVE ""
#WAVEOFFSET 0
#JACKET ""
#REQUEST "ticks_per_beat 480"
#00002: 4
#BPM01: 154
#00008: 01
#TIL00: ""
#HISPEED 00
#MEASUREHS 00
#00015:0000000000130000
#0001b:00000013
#00012:00000013
#00218:000000130000000000000000140000000000000014000000
#00215:00130000
#00212:0000001300000000
#00214:000014
#0031a:14
#00312:14
#00315:00000000000000000000000000000013
#00318:0000000000000013
#00415:00000000000013000000001300000000
#00418:0000130000130000
#0041b:2300000013000013
#00412:0013000013000000
#0071b:0013000000000013
#00717:0013
#00716:0013000000000013
#00714:00000000001300000000001300000000
#00719:00000000001300000000001300000000
#00712:0013
#00915:0013000000130000
#0091b:23000000130000000000001300000000
#00912:00000000000013001300000000130000
#00918:00000000000000130000000000001300
#00910:41
#01012:0013000013000000
#01017:00000013000000000000000000000000
#01014:00130000
#01019:00000000001300000000000000000000
#01016:0000001300000000
#01018:0000000000130000
#0101b:00000000000000130000000000001300
#01118:00000013000000000000001300000000
#01112:0013130000130000
#01115:00000000000000130000000000130000
#0111b:0000001313000013
#01212:00000000001300000000000000001300
#01218:00000000130000130000000000000000
#01215:00000013000000001300130000000000
#0121b:0013000000000000
#0131b:0013000000000000
#01316:00000013000000000000000000000000
#01319:00130000
#01314:00000000001300000000000000000000
#01312:00000000000000130000000000000000
#01317:0000001300000000
#01318:0000000000000013
#0141b:0013000013000013
#01418:0000130000130000
#01415:00000000001300000000001300000000
#01412:00001300000000130000000000130000
#01618:0013000013130000
#01615:0000131300001313
#01612:1313
#0161b:13130013
#01712:2300001300000000
#01718:23000000000000130000000000000000
#01715:0013
#0171b:0000000000130000
#01812:13000000000013000000001300000000
#01818:00000000000000000000130000130000
#0181b:0000001300000000
#01815:0013
#02012:13131313
#0201b:13131313
#02018:0013000000130000
#02015:0000001300000013
#02315:0013001300001300
#02318:0000130000130013
#0231b:2323
#02312:2323
#02715:1300130000130000
#02718:0013000013001300
#0271b:1300001300000000
#02712:0000000013000013
#02612:0000000000000013
#0261b:0000131300000000
#02617:0000000000130000
#02616:00130000000013000000000000000000
#0281b:1313130000130000
#02817:0000000000001313
#02816:1313130000000000
#02812:00000000000000130000000013000000
#0291b:1300001313000000
#02912:1300000013000013
#02918:0000130000130000
#02915:0013000000001300
#0301b:1300001313000013
#03015:0013000000000000
#03018:00130000
#03012:1313
#03112:13000013
#03118:0013000000130000
#03115:00000000130000000013000000000000
#0311b:0000001300000013
#03212:0013130000000000
#03216:0013
#0321b:0013
#03816:0013
#03818:0013000000000000
#03815:00000013000000000000000000000000
#0381b:0000001313000013
#03812:23
#03912:0013001300001300
#0391b:0000130000130013
#03915:26132600
#03918:00000013
#04015:0000000000000013
#04018:00000000260000000000000000000013
#04012:2626
#0411b:0000001323000000
#04114:00000000000000000000001300000000
#04118:00000013000000000000000000000000
#04116:0000001300000000
#04112:2300000000000023
#04117:0000000000000023
#0421b:0013230000000000
#04216:0013130000000000
#04218:0000000000000013
#04215:00000000000000000000000000000013
#04212:00000000000000000013000000000000
#05212:23130013
#05217:00000000130000000000001300000000
#05215:00000000000000000000000000000013
#05216:0013
#0521b:23
#0531a:14
#05312:0000001313000000
#05318:00000000000000130000000000001300
#0531b:0000000000130000
#05315:00000000000000000000001300000000
#0531f:11
#0561b:13
#05619:0013001300000000
#05617:00130000
#05614:0000000000130013
#05616:00000013
#05712:1300001300000000
#05718:00000000000000130000000000000000
#05715:00000000000000001300001300130000
#0571b:0000000000130013
#07317:00000000001300002300000000000000
#07316:23000000000000000000000000130000
#07319:00000013000000000000001300000000
#07314:00000013000000000000001300000000
#07312:0000001323000000
#0731b:2300000000000013
#08012:000000130000000000000000130000000000000013000000
#0801b:000000000000000000000000000000130000000000000000000000000000000013000000000000000000000000000000
#08016:000000000000140000000000000000140000000000000000140000000000000014000000000000001400000000000000
#0011b:13
#00119:0000001300000000
#00117:00000013
#00112:00000013
#00114:0000001300000000
#00116:13
#00518:00000000000013000000001300000000
#00515:0000130000130000
#00512:0000000013000013
#0051b:0013000013000000
#00615:00000000000013000000001300000000
#00618:0000130000130000
#0061b:0000000013000013
#00612:0013000013000000
#00819:12
#01515:0013001300000000
#01518:00000013000000130000000000000000
#01512:00130000
#0151b:00000000001300000000130013000000
#01517:0000000000000013
#0191b:1300001300000000
#01915:00000000000000130000000000001300
#01918:0013
#01912:0000000000130000
#02215:0000000000130013
#0221b:1300001300000000
#02212:0000001300000000
#02218:0013
#0241a:00140014001400140000000000000000
#02412:2414141400000000
#02416:0014
#0251b:2300001300000000
#02512:0000130000130013
#02517:0000130000000013
#02514:0013000000000000
#02516:23
#02510:41
#03716:0000001300000000
#03714:00000013000000000000001300000000
#03719:00000013000000000000001300000000
#03717:0000000000000013
#0371b:0023
#03712:23
#05412:1400000013000013
#05415:00000000000013000000001300000000
#05418:00000000000000130000000000130000
#0541b:0000000000130000
#0551a:14
#05518:00000000000013000000001300000000
#05515:00000000000000130000000000130000
#0551b:0000000013000013
#05512:0000000000130000
#0581b:0000001300000000
#05815:00000000000000130000000000000000
#05818:00000000000000001300001300130000
#05812:1400000000130013
#0441b:0013
#04415:00000013
#04412:0013230000000000
#04417:0013130000000000
#04617:0013000000000000
#04612:00000013000000000000000000000000
#04619:00130000
#04614:00000000001300000000000000000000
#0461b:0000001313000000
#04616:00000000000000130000000000000000
#04615:0000000000130013
#0481b:00000000001300000000130000000000
#04812:0013000013000000
#04818:00000013000000130000000000001300
#04815:0000131300000000
#04912:0000001313000013
#04912:0013
#0491b:00000013000000000000001300000000
#04916:0013000000000000
#04914:00130000
#04919:00000000001300000000000000000000
#04917:00000000000000130000000000000000
#05016:0013000000000000
#05012:0000130000130000
#05018:00000000001300000000001300000000
#0501b:00001300000000130000000000130000
#05015:0000000013000013
#0611b:0013000000130013
#06114:00130000
#06112:2300001300000000
#06116:0000000013000013
#06117:2300001300000000
#06119:00130000
#0611f:21
#06312:1313
#06316:0014001400140014
#06314:00130013
#0631b:1313
#06319:00130013
#06216:0000001300000014
#06212:0000000000130000
#0621b:0000001300000000
#06217:0013
#06210:41
#06412:13130013
#06415:0013000000000013
#06418:13130013
#0641b:0013000000130000
#06416:00000000000000130000000000000000
#06512:1300001313001300
#0651b:1300130013000013
#06515:0000130000130000
#06518:0013000000001300
#06612:1300001313000000
#06618:0013000000000013
#06615:00130000
#0661b:13131300
#06718:00000000000000000013000000000000
#06715:0000000000130000
#06712:0000000000000013
#06816:13131300
#0681b:0013130013000000
#06812:0000001300000000
#06817:0000001300000000
#06912:0013000000130013
#06914:00130000
#0691b:2300001300000000
#06917:0013
#06916:2300001300000000
#06918:00000000000000000000000000130000
#06919:00130000
#0711b:1313
#07116:0014001400140014
#07119:00130013
#07112:1313
#07114:00130013
#07110:41
#07016:0000000013000014
#0701b:0013000000130000
#07012:0000001300000000
#07017:0000001300000000
#07014:00130000
#0721b:13130013
#07218:0013000000000000
#07215:13130013
#07212:0013000000130000
#07217:00000000000000130000000000000000
#07418:0013000000000000
#07415:00000013000000000000000000000000
#07412:0000001313000013
#07417:0000001313000000
#0741b:23
#07416:23
#0751b:0013001300000000
#07512:0000000000130013
#07515:2626
#07712:23000000000013000000001300000000
#07718:0000130000130000
#0771b:2300000013000013
#07715:0013000013000000
#0781b:00000000000013000000001300000000
#07815:0000130000130000
#07812:0000000013000013
#07818:0013000013000000
#07912:00000000000013000000001300000000
#07918:0000130000130000
#0791b:0000000013000013
#07915:0013000013000000
#03518:1300130000130000
#03515:0013000013001300
#03512:1300001300000000
#0351b:0000000013000013
#03510:41
#0341b:0000000000000013
#03417:0000131300000000
#03412:0013001300000000
#03416:0000000000130000
#03612:1313130000130000
#03617:1313130000000000
#0361b:00000000000000130000000013000000
#03616:00000013
#03312:2300001300000000
#0331b:0000130000130013
#03316:00000000130000000000000000130000
#03319:0013000000000000
#03317:23
#0211b:2300001300000000
#02115:00000000000000130000000000000000
#02118:0013
#02112:2300000000130000
#04518:00001300000013000000130000130000
#04512:23000000000000130000000000001300
#04515:00000000130000000000001300000000
#0451b:2313
#04510:41
#06012:00140014001400140000000000000000
#0601a:2414141400000000
#06016:0014
#0511b:0013000000000000
#05115:00000013000000130000000000000000
#05118:0000131300000000
#05112:00000000001300000000130013000000
#05116:0000000000000013
#04712:0013000000000013
#04718:00000013000013000000130000130000
#04715:00000000130000130000001300000000
#0471b:0013
#05912:23132300
#05916:0014001400140014
#0591b:23002313
#04312:0000001323000000
#04319:00000000000000000000001300000000
#04315:00000013000000000000000000000000
#04317:0000001300000000
#0431b:2300000000000023
#04316:0000000000000023
#07618:2626
#07612:00260000
#00455:00000000000000000000006300000000
#00558:00000000000000000000005300000000
#00655:00000000000000000000006300000000
#0255b:0000006300000000
#02552:0000000000130053
#02557:0000000000130000
#03052:0063
#03252:00630013
#03257:00000013
#03256:0053
#0325b:0053
#0315b:0000001300000063
#03856:0053
#0385b:0053
#04052:1616
#04058:00160000
#0445b:0023
#04457:00530000
#04452:00130000
#04952:0063
#0495b:00000000000000000000006300000000
#05257:00530000
#05256:0053
#06752:0000000000000053
#06758:0000001300000000
#06856:23535300
#06852:0000002300001300
#0685b:00535300
#06857:0000002300001300
#0615b:0000000000430063
#06152:0000005300330000
#06156:0000000023000063
#0665b:0053
#06252:0000000000330000
#0625b:0000006300430000
#06257:0023
#06952:0000000000330023
#0695b:0000006300430000
#06957:0023
#0705b:0000000000430000
#07052:0000005300330000
#07056:0023
#07452:0063
#07457:0063
#07752:00000000000000000000006300000000
#0785b:00000000000000000000005300000000
#07952:00000000000000000000006300000000
#08052:000000130013
#0805b:000013
#08056:00001400001400000000000000000000
#00958:0000000000000013
#0115b:0000000000000013
#01358:0000000000000013
#0145b:0000000000000013
#02456:0014
#02657:0000000000130000
#02652:0000000000130000
#02656:00230000000063000000000000000000
#03352:0000005300000000
#0335b:0000000000130023
#03356:0000000000130000
#03657:00530000
#0365b:00000000000000230000000000000000
#03456:0000000000130000
#03457:0000005300000000
#0345b:0000000000130000
#03756:0000001300000000
#03757:0000000000000013
#0535a:14
#05452:14
#0555a:14
#05852:14
#05752:13
#0575b:13
#07352:0000001300000000
#0735b:0000000000000013
#01252:0000000000000013
#0105b:0000000000000013
#01852:13
#0195b:13
#0225b:13
#04256:00630000
#04252:00000000000000000023000000000000
#0425b:00130000
#06056:0014
#07658:1616
#07652:00160000
#04152:1300000000000013
#0415b:0013
#0435b:1300000000000013
#04352:0013
#06452:00530000
#06456:00000000000000230000000000000000
#0725b:00630000
#07257:00000000000000230000000000000000
#02856:00630000
#02852:00000000000000230000000000000000
#004350:00000000000000000000001300000000
#004320:0000000000000023
#005380:00000000000000000000001300000000
#0053b0:0000000000000023
#006350:00000000000000000000001300000000
#006320:0000000000000023
#008340:12323200000000003200000000003200
#008350:00000000003200000000003200000000
#009340:22
#010350:00000000000000000000001300002300
#012380:00000000000000000000001300002300
#0133b0:00000000000000001300002300000000
#013351:00000000000000000000001300002300
#015321:0000000013000023
#015361:0000000000333300
#017351:00000000000000000000001300002300
#017380:0000000000000013
#018380:23
#018350:0000000000000013
#019350:23
#019380:00000000000000000000001300002300
#021380:00000000000000000000001300002300
#021351:0000000000000013
#022351:23
#0223b1:00000000000000000000001300000000
#022381:0000000000000023
#0253b1:0000001300000000
#025371:0000000000230000
#025321:0000000000000013
#026361:00530000000000000000000000000000
#026321:00230000
#026361:0000001300000000
#026321:0000000000230000
#028361:0000130000230000
#028321:00000000000000530000000000000000
#030321:0013
#030361:00000023
#0313b1:0000000000000013
#032371:0023000000000000
#032321:00130023
#032361:0033
#0323b0:0013
#032370:00000023
#033320:0000001300000000
#033360:0000000000230000
#0333b0:0000000000000013
#034370:0023000000000000
#034370:0000001300000000
#0343b0:0000000000230000
#036370:0000130000230000
#0363b0:00000000000000530000000000000000
#0383b0:0013
#038370:00000023
#038361:0013
#038321:00000023
#042361:00130000
#042321:00000000000000000053000000000000
#042351:0000000000000023
#044371:00130000
#0443b1:0053
#044381:00000023
#046381:00000000000000000000001300002300
#048351:00000000000000000000001300002300
#049321:0013
#049361:00000000000000000000002300000000
#0493b0:00000000000000000000001300000000
#049370:0000000000000023
#0513b0:0000000013000023
#051370:0000000000333300
#052370:00130000
#0523b0:0023
#052361:0013
#052321:00000000000000000000002300000000
#056321:1323
#0563b0:0013
#0573b0:23
#061320:0000001300230000
#061360:0053
#0613b0:0000000000000013
#062370:00230000
#061361:0000000000000013
#062321:00230000
#0623b1:0000001300230000
#062371:0053
#064321:0000130000230000
#064361:00000000000000530000000000000000
#0663b1:0013
#066371:00000023
#066321:0000000000000013
#067321:23
#0673b0:1323000000000000
#067351:0013230000000000
#067380:0000132300000000
#067321:00000000000013000023000000000000
#0673b1:0000000000001323
#067320:0000000000000013
#068360:53
#068320:0023000000000000
#068360:00133300
#068320:0000005300002300
#0683b1:00133300
#068371:0000005300002300
#0693b1:0000001300230000
#069371:0053
#069321:0000000000000013
#070361:0023000000000000
#070321:0000001300230000
#070361:0053
#0723b1:0000130000230000
#072371:00000000000000530000000000000000
#074371:0013
#0743b1:00000023
#074320:0013
#074360:00000023
#075320:00130000
#075360:0000002300000000
#0753b0:00000013
#075370:0000000000000023
#077320:00000000000000000000001300000000
#077360:0000000000000023
#0783b0:00000000000000000000001300000000
#078370:0000000000000023
#079320:00000000000000000000001300000000
#079360:0000000000000023
#0813b0:13
#081370:002300000000
#081321:001300000000
#081361:002300
#0813b0:000000000000000000000000000000000000000000000000000000000000000012000000520000520000520000520000520000520000520000520000520000520000520000520000220000000000000000000000000000000000000000000000
#0813c0:00000000000000000000000000000000000000000000005200520052005200520052005200520052005200520052005200000000000000000000000000000000
