This file was generated by Ched 2.6.4.0.
#TITLE ""
#ARTIST ""
#DESIGNER ""
#DIFFICULTY 0
#PLAYLEVEL
#SONGID ""
#WAVE ""
#WAVEOFFSET 0
#JACKET ""
#REQUEST "ticks_per_beat 480"
#00002: 4
#BPM01: 154
#00008: 01
#TIL00: ""
#HISPEED 00
#MEASUREHS 00
#00016:0000000000140000
#00012:00000014
#0001a:00000014
#00215:0013000000000000
#0021b:00130000
#00212:0000001300000000
#00218:000000140014
#00214:000014
#00415:0000001300130000
#00418:00130000
#0041b:2313
#00412:0013000000000000
#0161b:0000130000130000
#01615:0000001300000013
#01618:13001313
#01612:0013000000000000
#0171b:0000001300000013
#01712:2313
#01715:00000000000000000000001300000000
#01718:0000000000130000
#02212:1400000000130000
#02215:0000001300000013
#0221b:0013
#02218:00000000000000000000001300000000
#03818:00000014000000000000000000000000
#03815:0000000000000013
#03814:0000001400000000
#03812:24
#03912:0013000000130000
#03918:00130013
#03915:0000001300000013
#0391b:2323
#01812:1400001300000013
#01818:00000000000000000000001300000000
#0181b:0013
#01815:0000000000130000
#0191b:0000001300000013
#01912:0013
#01915:00000000000000000000001300000000
#0191a:14
#01918:0000000000130000
#02115:00000000000000000000001300000000
#02118:0000001300000013
#0211b:0000000000130000
#02112:0013
#02116:24
#03718:00000014000000000000000000001400
#03714:00000000000014000000001400000000
#03712:24
#0371a:0024
#00118:16
#00115:0000001600000000
#00112:00000016
#00312:14
#0031a:14
#00518:0000001300130000
#00515:00130000
#00512:0013
#0051b:0013000000000000
#00615:0000001300130000
#00618:00130000
#0061b:0013
#00612:0013000000000000
#01512:0000000000130000
#0151b:0000333300001300
#01515:0000000000000013
#0151a:00000033000000330000000000000000
#05518:00000000000013000000001300000000
#05515:1300000013000013
#05612:1313
#0561b:1300000000130000
#05618:0013001300000013
#05615:00130013
#05712:1300000000000013
#0571b:13000000000000000000001300000000
#05718:0000001300000000
#05715:0013
#05818:1313
#05815:0000001300000000
#05812:00000000000000000000001300000000
#0581b:0000000000000013
#06115:00130000
#06118:0013000000000000
#0611b:0000001300000000
#06112:2300000000000013
#0611f:21
#02915:13
#02914:00130000
#02912:00000013
#02913:0013
#02919:0000001300000013
#02918:0000000000130000
#0291a:0013000000000000
#03013:13
#03014:00130000
#03015:0013
#0301b:0000001300000013
#0301a:0013000000000000
#06615:1300001300000013
#06618:00130000
#06612:0013000000000000
#0671b:13000013
#06718:00001300000000000013000000000000
#06715:0000130000130013
#06712:0000001300000000
#06217:0000001300000000
#06215:00130000000000000000000000001300
#06210:41
#0681b:00130013
#06815:00130013
#06818:0013
#06812:0013
#0771b:0000001300000000
#07715:00000000130000000000001300000000
#07712:2313
#07718:0013000000130000
#07812:0000001300000000
#07818:00000000130000000000001300000000
#0781b:0013
#07815:0013000000130000
#0791b:0000001300000000
#07915:00000000130000000000001300000000
#07912:0013
#07918:0013000000130000
#02012:1313
#02015:0013000000130000
#02018:00130013
#0201b:0000001300000013
#02518:00130000
#02512:0013000000000000
#0251b:2300000000000013
#02510:41
#03315:00130000
#0331b:0013000000000000
#03312:2300000000000013
#05418:1300000000000013
#0541b:0013
#05412:0000001300000000
#05415:00000000000000000000001300000000
#05312:0013
#0531b:1300001300000000
#05318:00000000000000000000001300000000
#05315:1300000000000013
#0531f:11
#05915:0013000000000000
#0591b:00130000
#05914:0000001300000000
#0591a:0013
#05913:0000000000130000
#05919:00000013
#05912:0000000000000013
#0321a:00000014
#03216:0014
#03212:00140000
#03115:00000000130000000013000013000000
#03112:13
#0311b:0000001300000000
#03118:0013000000130000
#02618:0000000000000013
#06412:1400000000000013
#06416:0014000014000000
#0641a:00140000
#06517:0013
#06516:0013000000000000
#06518:0000000000000013
#0651b:13000013
#06512:0000000000130000
#06514:0000001300000000
#06519:00130000
#0281b:0000000000000013
#0281a:14
#02816:0014000000000000
#02812:00140000
#06318:0013000013001300
#06315:0000130000130000
#06312:0000001300000000
#0631b:1300000000000013
#06918:00130000
#06915:0013000000000000
#06912:0000001300000000
#0691b:2300000000000013
#07016:0000001300000000
#07018:00130000000000000000000000001300
#07019:0033000000000000
#07412:00000014000000000000000000000000
#07418:2400001400000013
#07312:00000014000000000000000000000000
#07318:0000001400000000
#0731a:24000000000000000000001400000000
#07314:0000000024000014
#07515:0013001300001300
#07518:0000130000130013
#07512:2323
#0751b:2323
#0801a:0014000000000000
#08012:00000000001400000000000000000000
#08018:000000140014
#08014:000014
#08114:14
#08118:001400000000
#02318:0013000000000000
#02312:00130000
#02319:0000001300000000
#02313:0013
#0231a:0000000000130000
#02314:00000013
#0231b:0000000000000013
#01215:0000130000000013
#01212:00000000000000130000000000000000
#0121b:0013000000000000
#01218:00000000001300000000000000000000
#01315:00000000000000000000001300000000
#01318:0000333300000013
#01319:00000033000000330000000000000000
#01412:0013000000000000
#01418:0000130000130000
#01415:00000000001300000000001300000000
#0141a:00000000000000130000000000130000
#01413:0000000013000013
#0511b:0000000000130000
#05112:0000333300001300
#05118:0000000000000013
#05113:00000033000000330000000000000000
#04918:00000000000000000000001300000000
#04915:0000333300000013
#04914:00000033000000330000000000000000
#0501b:0013000000000000
#05015:0000130000130000
#05018:00000000001300000000001300000000
#05013:00000000000000130000000000130000
#0501a:0000000013000013
#05212:00130013
#05218:00130013
#05215:2313
#0521b:2313
#04018:0000000000000013
#04012:2323
#0401b:2323
#04015:00260000
#04212:00000000000000000013000000000000
#04215:00130000
#0441b:00000000000000000013000000000000
#04418:00130000
#02712:0013001300000000
#02718:00131300
#02715:1300000000130013
#0271b:00000013
#02415:1300000000130013
#02418:00000013
#06018:1300000000130013
#06015:00000013
#07115:0013000013001300
#07118:0000130000130000
#0711b:0000001300000000
#07112:1300000000000013
#07110:41
#07216:0014000014000000
#07212:00140000
#0721a:14
#01015:00000000000000130000000000001300
#0101b:0013000000000000
#01018:0000001300000000
#01012:00130000
#01115:00000000000000130000000000001300
#0111b:0000001300000000
#01112:00130000
#01118:0013000000000000
#00915:0000001300000013
#00918:00000000130000130000000000130000
#00912:0013000000000000
#0091b:23
#00910:41
#04818:0000130000000013
#0481b:00000000000000130000000000000000
#04812:0013000000000000
#04815:00000000001300000000000000000000
#04618:00000000000000130000000000001300
#04612:0013000000000000
#04615:0000001300000000
#0461b:00130000
#04718:00000000000000130000000000001300
#04712:0000001300000000
#0471b:00130000
#04715:0013000000000000
#04518:0000001300000013
#04515:00000000130000130000000000130000
#0451b:0013000000000000
#04512:23
#04510:41
#03612:14
#03616:0014000000000000
#0361a:00140000
#03415:0033000000000013
#0351b:0013001300000000
#03515:00131300
#03518:1300000000130013
#03512:00000013
#03510:41
#0761b:2323
#07612:2323
#07615:00260000
#04052:0013
#0405b:0013
#01852:14
#0195a:14
#02252:14
#05752:13
#0575b:13
#05858:13
#06257:0000006300000000
#0625b:0000000000130000
#06255:00230000000000000000000000000000
#06855:00000013
#0685b:00000013
#06157:0000000000130000
#0615b:0000006300000000
#06152:0000000000000053
#06755:0000000000000053
#06752:0000001300000000
#07755:00000000000000000000005300000000
#07858:00000000000000000000006300000000
#07955:00000000000000000000005300000000
#0255b:0000000000000063
#02555:0000000000130000
#02652:0000000000130000
#03352:0000000000000053
#03358:0000000000130000
#0345b:0000000000130000
#05458:13
#05555:13
#03055:0053
#0325a:00000014
#0645a:00640000
#06456:0024
#07056:0000005300000000
#07052:0000000000130000
#07058:00230000000000000000000000000000
#06952:0000005300000000
#0695b:0000000000000063
#06956:0000000000130000
#0765b:0013
#07652:0013
#0315b:0000001300000000
#05355:13
#0535b:13
#04252:00000000000000000023000000000000
#04255:00630000
#0445b:00000000000000000023000000000000
#04458:00530000
#02455:13
#06058:13
#07252:00540000
#07256:0024
#02852:00540000
#0365a:00640000
#004380:00000000000000000000001300002300
#005350:00000000000000000000001300002300
#006380:00000000000000000000001300002300
#007320:0014000024000000
#007350:00000000003400000000000000000000
#0073a1:0000000014000024
#007371:00000000000000000000003400000000
#009351:00000000000000001300002300000000
#010381:00000000000000001300002300000000
#0113b1:00000000000000001300002300000000
#012381:00000000000000001300002300000000
#0133b1:0013000023000000
#013391:00000033000000330000000000000000
#013381:00000000333333000000000000000000
#015381:0013000023000000
#0153a1:00000033000000330000000000000000
#0153b1:00000000333333000000000000000000
#025351:0000001300230000
#0253b1:0000000000000013
#026371:00230000
#026321:0000001300230000
#028321:00140000
#028361:00000024
#030351:0013
#030321:00000023
#031381:0000000000000013
#032381:0023000000000000
#033381:0000001300230000
#033321:0000000000000013
#034351:0033000000000000
#034361:00230000
#0343b1:0000001300230000
#0363a1:00140000
#036361:00000024
#0383a1:00001424
#041321:1300002300000000
#041351:00000033000000000000000000000000
#0413b1:0000000013000033
#041381:00000000000000000000003300000000
#042381:0023000000000000
#042351:0000130000000023
#042321:00000000000000000053000000000000
#0433b1:1300002300000000
#043381:00000033000000000000000000000000
#043321:0000000013000033
#043351:00000000000000000000003300000000
#044351:0023000000000000
#044381:0000130000000023
#0443b1:00000000000000000053000000000000
#045381:00000000000000001300002300000000
#046351:00000000000000001300002300000000
#047321:00000000000000001300002300000000
#048351:00000000000000001300002300000000
#049321:0013000023000000
#049341:00000033000000330000000000000000
#049351:00000000333333000000000000000000
#051351:0013000023000000
#051331:00000033000000330000000000000000
#051321:00000000333333000000000000000000
#0613b1:0000001300000000
#061371:0000000000230000
#061321:0000000000000013
#062351:00530000000000000000000000000000
#062321:00230000
#062371:0000001300000000
#0623b1:0000000000230000
#0643a1:00140024
#064361:0054
#0663b1:00001323
#067351:0000000000000013
#068321:0023000000000000
#069321:0000001300000000
#069361:0000000000230000
#0693b1:0000000000000013
#070381:00530000000000000000000000000000
#070391:0033000000000000
#0703b1:00230000
#070361:0000001300000000
#070321:0000000000230000
#072321:00140024
#072361:0054
#074341:00001424
#077351:00000000000000000000001300000000
#077321:0000000000000023
#078381:00000000000000000000001300000000
#0783b1:0000000000000023
#079351:00000000000000000000001300000000
#079321:0000000000000023
#081351:000000001353535353230000
#081341:000000000000000000530053005300530053000000000000
