This file was generated by Ched 2.6.4.0.
#TITLE ""
#ARTIST ""
#DESIGNER ""
#DIFFICULTY 0
#PLAYLEVEL
#SONGID ""
#WAVE ""
#WAVEOFFSET 0
#JACKET ""
#REQUEST "ticks_per_beat 480"
#00002: 4
#BPM01: 154
#00008: 01
#TIL00: ""
#HISPEED 00
#MEASUREHS 00
#00013:0000000000130000
#00019:00000015
#00012:00000015
#0001a:0000000000130000
#00416:0000001313000000
#00412:23000000130000000000131300000000
#0041b:2300130013000013
#00417:0013000000130000
#0071b:0013000013000013
#00716:00001400001400001400001400001400
#00712:00000000001300000000001300000000
#01619:0013000000130000
#01612:1313
#0161b:00130013
#01614:0000001300000013
#01617:0013
#01616:00130013
#01716:0013
#01712:23000000000013000000131300000000
#0171b:0000000000000013
#01717:2300000000130000
#0191b:00000000000013000000131300000000
#01912:1300000000000013
#01917:1313
#01916:0000000000130000
#0181b:1300000013130000
#01816:13000000000000001300001300000000
#01812:0000001300000013
#01817:00000000000013000000000000130000
#02316:0013000000001300
#02312:2c0013002c130013
#02315:0000001300000000
#02317:0000130000130013
#02318:00000000000000130000000000000000
#0231b:0013000000001300
#02717:1300000000000013
#0271b:0013000000001300
#02716:0000130000130000
#02712:0000001313000000
#02612:1300001300000013
#0261b:2300130000130013
#02614:0013000000000000
#02613:00000000000000000000001300000000
#02618:00000013
#02619:0013
#02617:0000001300000000
#02616:00130000
#02816:13000013
#02819:0013000000000000
#02812:0000130000130013
#0281b:13000000000000130000000013000000
#02814:0013000000000000
#02817:00130000
#0291b:13
#02916:1313
#02917:00130013
#03818:00000013000000000000000013000013
#03815:00000013000000001600001300001300
#03812:2300000000130000
#0381b:00000000000000000000000000130000
#03817:23
#03917:0013000000001313
#0391b:00000000130000000000001300001300
#03912:26000013000013000000000013000000
#03916:0000131300130000
#03918:0026
#04012:26000016000000002600000000000000
#04018:00000000260000162600000000000013
#04015:0000000000000013
#04219:0013000000000000
#04212:0000000000000000001300000013000000130000001300000013000000000000
#04213:00000000231313131313131313130000
#04214:0000000013000000000000130000001300000013000000130000001300000000
#04218:0000000000000013
#04215:00000000000000000000000000000013
#0421a:00230000
#05217:0000001300001300
#05216:00000000130000000000130000000013
#0521b:23130000
#05212:2313
#05315:00000000000013000000161600001600
#05318:00000000000000130000000000000000
#05312:13
#0531f:11
#05616:0013001300000000
#0561b:13130000
#05617:0000000000130013
#05612:00000013
#05712:13000000000000000000000000130000
#05718:0000001313000000
#0571b:0000000000130000
#05716:00000000000000000000001300000000
#05715:00000000000000130000000000000000
#05717:0000000000000013
#07316:0000001400001400000014001400000000000014000014000000140014000000
#0731a:2424
#07312:2424
#00318:1600000000000013
#00315:00000000000000000000000000000013
#02017:13130000
#02012:0000000000130013
#0201b:0013001300000000
#02016:00000013
#02216:0000001300000000
#02218:1300000000131415
#02215:13000000000000000000001300000000
#02214:00000000000000000000000000140000
#02213:00000000000000000000000000000015
#02416:00140000140000140000000000000000
#02412:2414001414000000
#0241a:24000014001400001400000000000000
#03012:1300001313000000
#0301b:00130013
#03017:0000000000000013
#0371b:0000001300000000000000001300000023000000000000000013000000000000
#03712:2300000000000000001300000000000000000013000000000000000013000000
#03717:13
#03715:00000013000000000000000000000000
#03716:0013
#03718:00000000000000000000001300000000
#0541b:13
#05412:1313
#05415:00000000000016000000161600161600
#04519:0013000000130000
#04512:00000000130000000000000000130000
#04514:00000000000000000000001300000000
#04515:0000000000000013
#04516:13
#0451b:2323
#04517:00230023
#04510:41
#04815:00000013000013002300130000001300
#04818:00001300230000130000000000001300
#04812:13000000001300000000000023000000
#0481b:23000000000000000000001300000000
#07412:24000014000000001400000000130000
#07416:000000000000000000000000000000000000000000000000000000000000000000000000000000000000000000000000000000000000000000000000000000000000000000000000000000000000000000000000000000000000000000000000000000000000000000000000000000000000000000000000000000000000000000000000000000000000000000000000000000000000000000000000000000000000000000000000000000000000000000000000000000000000000000000000000000000000000000000000000000000000000000000000000000000000000000000000000000000000000000000000140000000000000000000000000000000000000000000000000000000000000000000000000000000000000000000000000000000000000000000000000000000000000000000000000000000000000000000000000000000000000000000000000000000000000000000000000000000000000000000000000000000000000000000000000000000000000000000000000000000000000000000000000000000000000000000000000000000000000000000000000000000000000000000000000000000000000000000000000000000000000000000000000000000000000000000000000000000000000000000000000000000000000000000000000000000000000000000000000000000000000000000000000000000000000000000000000000000000000000000000141400000000000000000000000000000000000000000000000000000000000000000000000000000000000000000000000000000000000000000000000000000000000000000000000000000000000000000000000000000000000000000000000000000000000000000000000000000000000000000000000000000000000000000000000000000000000000000000000000000000000000000000000000000000000000000000000000000000000000000000000000000000000000000000000000000000000000000000000000000000000000000000000000000000000000000000000000000000000000000000000000000000000000000000000000000000000000000000000000000000000000000000000000000000000000000000000000000000000000000000000000000000000000000000000000000000000000000000000000000000000000000000000000000000000000000000000000000000000000000000000000000000000000000000000000000000000000000000000000000000000000000000000000000000000000000000000000000000000000000000000000000000000000000000000000000000000000000000000000000000000000000000000000000000000000000000000000000000000000000000000000000000000000000000000000000000000000000000000000000000000000000000000000000000000000000000000000000000000000000000000000000000000000000000000000000000000000000000000000000000000000000000000000000000000000000000000000000000000000000000000000000000000000000000000000000000000000000000000000000000000000000000000000000000000000000000000000000000000000000000000000000000000000000000000000000000000000000000000000000000000000000000000000000000000000000000000000000000000000000000000000000000000000000000000000000000000000000000000000000000000000000000000000000000000000000000000000000000000000000000000000000000000000000000000000000000000000000000000000000000000000000000000000000000000000000000000000000000000000000000000000000000000000000000000000000000000000000000000000000000000000000000000000000000000000000000000000000000000000000000000000000000000000000000000000000000000000000000000000000000000000000000000000000000000000000000000000000000000000000000000000000000000000000000000000000000000000000000000000000000000000000000000000000000000000000000000000000000000000000000000000000000000000000000000000000000000000000000000000000000000000000000000000000000000000000000000000000000000000000000000000000000000000000000000000000000000000000000000000000000000000000000000000000000000000000000000000000000000000000000000000000000000000000000000000000000000000000000000000000000000000000000000000000000000000000000000000000000000000000000000000000000000000000000000000000000000000000000000000000000000000000000000000000000000000000000000000000000000000000000000000000000000000000000000000000000000000000000000000000000000000000000000000000000000000000000000000000000000000000000000000000000000000000000000000000000000000000000000000000000000000000000000000000000000000000000000000000000000000000000
#0741a:24000014000000001400000000000000
#0741b:0000000000130000
#07418:00000000000000000000001300001300
#07415:00000000000000000000000013000013
#00512:0000130013000013
#00516:0013000000130000
#0051b:00000000130000000000131300000000
#00517:0000001313000000
#0061b:0000130013000013
#00617:0013000000130000
#00612:00000000130000000000131300000000
#00616:0000001313000000
#0151b:0013000013000000
#01516:00000014140014140000000000000000
#01512:00000000001300000000000000000000
#02518:00000000000000000000001300001300
#02512:0013001300001300
#02516:24131300
#02517:0000001300000000
#02515:00000000000000000000130000000013
#02510:41
#03617:13000013
#03614:0013000000000000
#03612:13000000000000130000000013000000
#03619:0013000000000000
#0361b:0000130000130000
#03616:00130000
#0411b:1300000000000000000000001300000023000000000000000013000000000000
#04117:0000001300000000000000000000000000000000000013000000000000000000
#04116:0000000000001300000000000000000000000013000000000000000000000000
#04112:2300000000000000001300000000000013000000000000000000000013000000
#04112:0000000000000023
#04312:1300000000000000000000001300000023000000000000000013000000000000
#04316:0000001300000000000000000000000000000000000013000000000000000000
#04317:0000000000001300000000000000000000000013000000000000000000000000
#0431b:2300000000000000001300000000000013000000000000000000000013000000
#0431b:0000000000000023
#04414:0013000000000000
#0441b:0000000000000000001300000013000000130000001300000000000000000000
#0441a:00000000231313131313131300000000
#04419:0000000013000000000000130000001300000013000000130000000000000000
#04413:00230013
#0471b:2300000023000013
#04712:13000013000000000000001300000000
#04716:00000000000000130000000000000000
#04717:00230023
#04617:0013230000002300
#04614:00000000001300000000000000000000
#04612:13000013000000000000001300000000
#04619:0000001300000000
#04616:00000000000000130000130000001300
#0461b:2300000023000013
#04918:0013000000000000
#04919:00000000001300000000000000000000
#0491b:00000013000000001300001300000000
#04914:0000001300000000
#04917:00000000000000130000000000000000
#04912:2300000023000013
#04916:0000230000132300
#05012:23000000000000132300130000000000
#0501b:00000000000000000000001300000000
#05019:00000000000000000000000000130000
#05014:0013000000000013
#05017:13
#05016:00230023
#05119:00000013000000000000130000000000
#05114:0000001300000013
#05117:00000000000000130000000000000000
#0511b:13000000001300000000000013000000
#05112:2313000023000000
#05116:00230023
#05512:13
#0551b:13
#05515:00000000000013000000161600161600
#05518:00000000000000130000000000000000
#05812:1300000000130000
#0581b:13000000000000000000000000130000
#05815:0000001313000000
#05817:00000000000000000000001300000000
#05818:00000000000000130000000000000000
#05816:0000000000000013
#05918:00001300130013000000001300130013
#05915:00000013001300130000130013001300
#05912:2424
#0591a:2424
#07516:0013002300001300
#07512:00000000130000002600002300001300
#0751b:00000023000013000000000013000000
#07517:0000130000130023
#07518:26
#07618:2600001600001600160000000000000026000000000000000000000000000000
#07612:1600000000000000260000160000160026000000000000000000000000000000
#07717:00000000130000001300131300000000
#0771b:23000000000000000000131300000000
#07712:2313000000000000
#07816:00000000130000001300131300000000
#07812:00000000000000000000131300000000
#0781b:0013000000000000
#00116:00000014000000000014000000000014
#00112:14000014
#0011a:1400001400000000
#0021a:0014000000000000
#00216:00140000
#00212:0000001400000000
#00218:0016
#0341b:1300001300000013
#03412:2300130000130013
#0341a:00000000000000000000001300000000
#03415:00000013
#03419:0013000000000000
#03414:0013
#03416:0000001300000000
#03417:00130000
#03318:00000000000000000000130000000013
#03315:00000000000000000000001300001300
#0331b:0013001300001300
#03317:00131300
#03316:2400001300000000
#03516:1300000000000013
#03512:0013000000001300
#03517:0000130000130000
#0351b:0000001313000000
#03510:41
#0321a:00141400
#03212:00000000000013000000000000000013
#03216:1300130000000013
#03215:00000000000000000013000000000000
#03218:0000000000131400
#03214:00000000000000000000001300000000
#03213:00000000000000000000000000130000
#0321b:13
#03116:00000013
#0311b:0000131300001300
#03112:1313000000130013
#03117:13000000130013000013000000001300
#06317:13130000
#0631b:0013001300000000
#06312:00001313
#06316:0000000000130013
#06212:1300001300001313
#0621b:23000000130000000000001300001300
#06216:0013130000130000
#06217:0000001300000000
#06214:0013
#06210:41
#06416:1300130000130000
#06417:0013000000001300
#0641b:1300130000000013
#06412:0013000000001300
#06415:00000000000000130000000000000000
#06616:0000000000000013
#0661b:1313
#06614:0013000000000000
#06612:00130013
#06619:0000001300000000
#06112:0013001300000000
#06116:24000000130000000000001300000000
#06119:00001313
#06117:0000001300000000
#0611b:0000000000130000
#06115:0000000000000013
#06118:00000000000000000000000000000013
#0611f:21
#06517:1313
#06512:1313000000130000
#06516:00130013
#0651b:0000001300000000
#06519:0000000000000013
#06712:00001300000013000013000013000000
#0671b:1300000000000000130000000000001300000000000000000000000013000000
#06716:1300130000000013
#06717:0000001300131300
#06812:13000000130000000013000000000013
#06818:0000000000130013
#06815:00000000000000000000001300130000
#0681a:00140014
#06816:0000001314000000
#06817:13
#07116:13130000
#07112:0013001300000000
#0711b:00001313
#07117:0000000000130013
#07110:41
#0701b:1300001300001313
#07012:23000000130000000000001300001300
#07017:0013130000130000
#07016:0000001300000000
#07019:0013
#0691b:0013001300000000
#06917:00000000130000000000001300000000
#06914:00001313
#06916:2400001300000000
#06912:0000000000130000
#06918:0000000000000013
#06915:00000000000000000000000000000013
#02115:0000001300000000
#0211b:0000000000130013
#02116:23000000000000000000001300000000
#06016:00140000140000140000000000000000
#0601a:2414001414000000
#06012:24000014001400001400000000000000
#07917:00000000130000001300131300000000
#0791b:00000000000000000000131300000000
#07912:0013000000000000
#07217:1300130000130000
#07216:0013000000001300
#07212:13130000
#0721b:0013000000001300
#07218:00000000000000130000000000000000
#0801b:0013000000000000
#0131b:00001300000000001300001300000000
#01316:00000014140014140000000000000000
#01312:00000000001300001300000000000000
#01315:0000000000000016
#01317:0000000000000000000000000000000000000000000000000013000000000000
#01418:00130000
#0141b:00001300000000130000000000000000
#01412:0000000000130000
#01415:00000000000000000000000000131600
#00912:23131300
#0091b:23131300
#00918:00001300000000130000130000130000
#00915:00000013000013000000000000001600
#00910:41
#0101b:0013000013000013
#01016:00000014140014140000000000000000
#01012:00000000001300000000001300000000
#01015:0000000000130016
#01018:00000000000000000000001300000000
#0121b:00001300001300000000001300000000
#01218:00000013000000130000130000000000
#01215:00000000130000001300001300001600
#01212:00001300000000130000000000001300
#0111b:00131300
#01112:00131300
#01118:00000013000013000000000000000000
#01115:00001300000000130000130000131600
#00816:00320000000000000000000000000000
#0081b:00320000000000000000000000000000
#00452:00000000000000000000006300000000
#00456:0000000000000033
#0185b:43
#01856:43000000000000000000006300000000
#02452:0034
#0245a:0044
#02857:00530000
#0285b:00000000000000230000000000000000
#02852:00330000
#02859:0043000000000000
#02856:33
#03052:0063
#03057:1313
#03056:00130000
#04052:1636
#04058:00164600
#0545b:43
#05452:33
#05752:33
#0575b:43
#04253:00000000536363636363636363630000
#04252:0000000000000000002300000023000000230000002300000023000000000000
#04254:0000000000000000000000230000002300000023000000230000002300000000
#0425a:00130000
#0525b:00530000
#05257:0000002300005300
#05252:0063
#05256:0000000000230000
#0055b:00000000000000000000005300000000
#00557:0000000000000043
#00652:00000000000000000000006300000000
#00656:0000000000000033
#0075b:0043000043000043
#00752:00000000003300000000003300000000
#0195b:00000000000000000000002300000000
#01952:33
#01957:33
#02652:0000006300000000
#0265b:4300000000130000
#0295b:1313
#02952:00130013
#03657:43
#03654:0033000000000000
#0365b:00430000
#03656:00630000
#03652:00000000000000230000000000000000
#0375b:0000002300000000000000004300000000000000000000000023000000000000
#03752:0000000000000000002300000000000000000023000000000000000033000000
#03756:0000004363000000
#03757:5300000000000033
#03755:00000063000000000000000000000000
#03758:00000000000000000000005300000000
#03855:00000053000000000000000000000000
#03858:00000053000000000000000000000000
#03952:36
#03958:0046
#04157:0000002300000000000000000000000000000000000063000000000000000000
#0415b:5300000000000000000000000000000013000000000000000023000000000000
#04156:0000000000005300000000000000000000000023000000000000000000000000
#04152:1300000000000000002300000000000063000000000000000000000013000000
#04352:6300000000000000000000000000000013000000000000000023000000000000
#04356:0000002300000000000000000000000000000000000053000000000000000000
#04357:0000000000006300000000000000000000000023000000000000000000000000
#0435b:1300000000000000002300000000000053000000000000000000000013000000
#0445b:0000000000000000002300000023000000230000002300000000000000000000
#0445a:00000000635353535353535300000000
#04459:0000000000000000000000230000002300000023000000230000000000000000
#04453:00130000
#0495b:00000000000000000000002300000000
#0535b:43
#05352:33
#05552:33
#0555b:43
#05852:33
#0585b:43
#0735a:54
#07356:0000002400005400000000001400000000000024000064000000000014000000
#07352:0064
#07456:000000000000000000000000000000000000000000000000000000000000000000000000000000000000000000000000000000000000000000000000000000000000000000000000000000000000000000000000000000000000000000000000000000000000000000000000000000000000000000000000000000000000000000000000000000000000000000000000000000000000000000000000000000000000000000000000000000000000000000000000000000000000000000000000000000000000000000000000000000000000000000000000000000000000000000000000000000000000000000000000000000000000000000000000000000000000000000000000000000000000000000000000000000000000000000000000000000000000000000000000000000000000000000000000000000000000000000000000000000000000000000000000000000000000000000000000000000000000000000000000000000000000000000000000000000000000000000000000000000000000000000000000000000000000000000000000000000000000000000000000000000000000000000000000000000000000000000000000000000000000000000000000000000000000000000000000000000000000000000000000000000000000000000000000000000000000000000000000000000000000000000000000000000000000000000000000000000000000000000000000242400000000000000000000000000000000000000000000000000000000000000000000000000000000000000000000000000000000000000000000000000000000000000000000000000000000000000000000000000000000000000000000000000000000000000000000000000000000000000000000000000000000000000000000000000000000000000000000000000000000000000000000000000000000000000000000000000000000000000000000000000000000000000000000000000000000000000000000000000000000000000000000000000000000000000000000000000000000000000000000000000000000000000000000000000000000000000000000000000000000000000000000000000000000000000000000000000000000000000000000000000000000000000000000000000000000000000000000000000000000000000000000000000000000000000000000000000000000000000000000000000000000000000000000000000000000000000000000000000000000000000000000000000000000000000000000000000000000000000000000000000000000000000000000000000000000000000000000000000000000000000000000000000000000000000000000000000000000000000000000000000000000000000000000000000000000000000000000000000000000000000000000000000000000000000000000000000000000000000000000000000000000000000000000000000000000000000000000000000000000000000000000000000000000000000000000000000000000000000000000000000000000000000000000000000000000000000000000000000000000000000000000000000000000000000000000000000000000000000000000000000000000000000000000000000000000000000000000000000000000000000000000000000000000000000000000000000000000000000000000000000000000000000000000000000000000000000000000000000000000000000000000000000000000000000000000000000000000000000000000000000000000000000000000000000000000000000000000000000000000000000000000000000000000000000000000000000000000000000000000000000000000000000000000000000000000000000000000000000000000000000000000000000000000000000000000000000000000000000000000000000000000000000000000000000000000000000000000000000000000000000000000000000000000000000000000000000000000000000000000000000000000000000000000000000000000000000000000000000000000000000000000000000000000000000000000000000000000000000000000000000000000000000000000000000000000000000000000000000000000000000000000000000000000000000000000000000000000000000000000000000000000000000000000000000000000000000000000000000000000000000000000000000000000000000000000000000000000000000000000000000000000000000000000000000000000000000000000000000000000000000000000000000000000000000000000000000000000000000000000000000000000000000000000000000000000000000000000000000000000000000000000000000000000000000000000000000000000000000000000000000000000000000000000000000000000000000000000000000000000000000000000000000000000000000000000000000000000000000000000000000000000000000000000000000000000000000000000000000000000000000000000000000000000000000000000000000000000000000000000
#07452:00000054000000000000000000000000
#0745a:00000064000000000000000000000000
#07558:46
#07552:0000130036000013
#0755b:0000001300001300
#07658:1600002600000000560000000000000046000000000000000000000000000000
#07652:5600000000000000160000260000000036000000000000000000000000000000
#07757:00000000000000000000006300000000
#0775b:00000000000000000000006300000000
#07752:0000000000000043
#07756:0000000000000043
#07856:00000000000000000000005300000000
#07852:00000000000000000000005300000000
#0785b:0000000000000033
#07857:0000000000000033
#00156:00000024000000000024000000000024
#00152:54000054
#0015a:0000006400000000
#02557:0000006300000000
#02555:0000000000130000
#02556:34
#03356:4400005300000000
#03358:0000000000130000
#0345b:0000005300000000
#03452:3300000000130000
#0325a:00141400
#03252:0000002300000000
#03256:23630000
#03258:00000014
#0325b:23
#06456:33330000
#06457:0043000000000000
#0645b:00630000
#06455:00000000000000230000000000000000
#06257:0000006300000000
#06256:0000000000130000
#0625b:43
#06152:0000006300000000
#0615b:0000000000130000
#06156:34
#06552:3333
#0655b:00430043
#0665b:0053
#06656:3333
#06657:00430000
#0315b:0000001300000000
#03157:0000005300000053
#03152:0000000000000053
#0685a:00140014
#06852:23630000
#06856:0000002314000000
#06857:23
#07056:0000005300000000
#07057:0000000000130000
#07052:33
#0695b:0000005300000000
#06952:0000000000130000
#06956:44
#01752:00000000000000000000002300000000
#02156:00000000000000000000005300000000
#0605a:0044
#06052:0034
#0675b:0000000000000000000000000000002300000000000000000000000063000000
#06752:0000001300000000
#06757:0000005300000000
#06756:0000000000000063
#07957:00000000000000000000006300000000
#0795b:00000000000000000000006300000000
#07952:0000000000000043
#07956:0000000000000043
#02255:33
#02258:43
#07257:43430000
#07256:0033000000000000
#07252:00530000
#07258:00000000000000230000000000000000
#0805b:0013000013000000
#08052:00000000001300000000000000000000
#08057:000013
#08056:000000000013
#01455:0000000000000046
#0135b:00000000000000000000006300000000
#01352:0053
#01355:0000000000000036
#01357:0000000000000000000000000000000000000000000000000023000000000000
#01055:0000000000000036
#01255:0000000000000046
#00955:0000000000000036
#01155:0000000000000046
#001320:1400002400000000
#001360:00000054000000000000000000000000
#0013a1:0000001400002400
#001361:00000000000000000054000000000000
#001320:00000014
#001360:00000000000000000000000000000054
#002320:0024000000000000
#002320:000000162600
#002381:000000001626
#002320:000000000016
#003320:26
#004320:00000000000000000000001300000000
#004360:0000000000000023
#0053b0:00000000000000000000001300000000
#005370:0000000000000023
#006320:00000000000000000000001300000000
#006360:0000000000000023
#008370:12
#008360:00320000003200000000000000000000
#008340:0032000000000000
#008330:0032
#008350:00000000000000000000003200000000
#008320:0000000000000022
#0083c1:12
#0083b1:00320000003200000000000000000000
#008391:0032000000000000
#008381:0032
#0083a1:00000000000000000000003200000000
#008371:0000000000000022
#009351:00000000000000000000001300230000
#011381:00000000000000000000001300230000
#013321:0013
#013361:00000000000000000000002300000000
#0133b0:00000000000000000000001300002300
#013370:0000000000000000000000000000000000000000000000000053000000000000
#014320:0013230000000000
#014350:00000000001300230000000000000000
#014380:0000000013230000
#0143b0:00000000000000000000001300230000
#015320:0013
#015360:0000000000230000
#0153b1:0000000000130000
#015371:00000023
#015320:00000013
#015360:0000000000000023
#0153b1:0000000000000013
#016371:23
#0173b1:00000000000000132300000000000000
#017321:00000000000000000000001300000000
#017361:0000000000000023
#018361:00000000000000000000001300000000
#018321:00000000000000000000000000230000
#019321:00000000000000132300000000000000
#0193b1:00000000000000000000001300000000
#019371:0000000000000023
#020321:13332300
#020361:0033003300000000
#0203b0:00001333
#020370:0000000000330033
#0213b0:23
#0213b0:00000000000000132300000000000000
#021321:0000000013230000
#021361:00000000000000000000001300000000
#021321:0000000000000023
#0223b1:0000001323000000
#022320:0000000013230000
#0253b0:13230000
#025370:0033000000000000
#025370:0000001300000000
#0253b0:0000000053230000
#026320:0000001300000000
#026360:0000000053230000
#027320:13
#027360:0023000000000000
#0273b0:00130000
#027370:0000002300000000
#027370:0013
#0273b0:0000000000230000
#027360:00000013
#027320:0000000000000023
#028370:0000130000230000
#0283b0:00000000000000530000000000000000
#029320:0013230000000000
#0293b0:0000001323000000
#029320:0000000000132300
#0293b0:0000000000000013
#030370:23
#030320:0013000000000000
#030360:00230000
#0303b0:0000001300000000
#030370:0023
#030321:0013
#030371:00000023
#031371:0000001300000000
#031321:00000000000000000023000000000000
#031371:0000000000000013
#0323b1:53
#032371:0023000000000000
#031320:0000000000000013
#032360:53
#032320:0023000000000000
#032360:00130000
#032320:0000005300000000
#032350:0023
#033320:13230000
#033360:0033000000000000
#033360:0000001300000000
#033320:0000000053230000
#0343b0:0000001300000000
#034370:0000000053230000
#0353b0:13
#035370:0023000000000000
#035320:00130000
#035360:0000002300000000
#035360:0013
#035320:0000000000230000
#035370:00000013
#0353b0:0000000000000023
#036360:0000130000230000
#036320:00000000000000530000000000000000
#037370:13
#0373b0:0000005300000000000000000000000000000000000000000000000000000000
#037380:00000023000000000000000000000000
#037351:00000013000000000000000000000000
#037321:0000000000000000005300000000000000000000000000000000000000000000
#037361:0000002300000000
#037361:0013
#037321:0000000000000000000000000000000000000053000000000000000000000000
#037351:00000000000000000000002300000000
#037380:00000000000000000000001300000000
#0373b0:0000000000000000000000000000000000000000000000000053000000000000
#037370:0000000000000023
#038350:00001353000000000000000000000000
#038320:0000002300000000
#038381:00000013000000000000000000000000
#0383b1:0000002300000000
#040381:16000026000000000000000000000000
#040321:00000000160000260000000000000000
#0413b1:13000023000000000000000000000000
#041371:0000005300000000000000000000000000000000000000000000000000000000
#041360:00000013000023000000000000000000
#041320:0000000000000000005300000000000000000000000000000000000000000000
#041320:00000000000000001300002300000000
#041360:0000000000000000000000000000000000000053000000000000000000000000
#041371:00000000000000000000001300002300
#0413b1:0000000000000000000000000000000000000000000000000053000000000000
#042331:00000000135353535353535353532300
#042321:0000000000000000005300000053000000530000005300000053000000000000
#042341:0000000000000000000000530000005300000053000000530000005300000000
#043321:13000023000000000000000000000000
#043361:0000005300000000000000000000000000000000000000000000000000000000
#043370:00000013000023000000000000000000
#0433b0:0000000000000000005300000000000000000000000000000000000000000000
#0433b0:00000000000000001300002300000000
#043370:0000000000000000000000000000000000000053000000000000000000000000
#043361:00000000000000000000001300002300
#043321:0000000000000000000000000000000000000000000000000053000000000000
#0443a1:00000000135353535353535323000000
#0443b1:0000000000000000005300000053000000530000005300000000000000000000
#044391:0000000000000000000000530000005300000053000000530000000000000000
#045371:00000000000013230000000000000000
#045320:00000000000000132300000000000000
#047370:00001323000000000000000000000000
#0473b0:00000000000013230000000000000000
#047370:00000000000000000000132300000000
#047320:00000000000000000000000000132300
#0493b0:00000000000000000000001300000000
#049370:0000000000000023
#0503b0:0013230000000000
#050390:00000000001300230000000000000000
#050370:0000000013230000
#0523b0:00132300
#052370:0000005300000000
#052321:00001323
#052361:0000000000530000
#052370:00000013
#0523b0:00000000000000000000000000000053
#0533b0:23
#053320:0000000013230000
#0533b0:00000000000000000000001300002300
#0543b0:0000000013230000
#054320:00000000000000000000001300230000
#055320:0000000013230000
#0553b0:00000000000000000000001300230000
#056360:13330000
#056320:0033003323000000
#056371:00001333
#0563b1:0000000000330033
#0573b1:23
#057321:0013
#057361:0000000000230000
#0573b1:00000000000000000000001300000000
#057371:00000000000000000000000000230000
#0583b1:0013
#058371:0000000000230000
#058321:00000000000000000000001300000000
#058361:00000000000000000000000000230000
#0613b1:13230000
#061371:0033000000000000
#061321:0000001300000000
#061361:0000000053230000
#062371:0000001300000000
#0623b1:0000000053230000
#063321:13330000
#063361:0033002300000000
#063371:00001333
#0633b1:0000000000330023
#0643b1:0000130000230000
#064351:00000000000000530000000000000000
#065371:0013000000000000
#0653b1:00230000
#065361:0000001300000000
#065321:0023
#065371:0000000000130000
#0653b1:00000023
#065361:0000000000000013
#066361:23
#066371:0013230000000000
#066361:0000001323000000
#0663b0:0013
#066360:00000023
#067370:00000000000013000023000000000000
#0673b0:0000000000000000000000000000005300000000000000000000000000000000
#067360:0000000000000013
#068320:53
#068360:0023000000000000
#0673b1:0000000000000013
#068371:53
#0683b1:0023000000000000
#068321:00132300
#068361:0000005300000000
#069321:13230000
#069361:0033000000000000
#0693b1:0000001300000000
#069371:0000000053230000
#070361:0000001300000000
#070321:0000000053230000
#0713b1:13330000
#071371:0033002300000000
#071361:00001333
#071321:0000000000330023
#072321:0000130000230000
#072381:00000000000000530000000000000000
#0733a1:14000024000000000000000000000000
#073361:0000005400000000000000000000000000000000000000000000000000000000
#073360:00000014000000000000000000000000
#073320:00000000002400000000000000000000
#073320:00000000000000001400002400000000
#073360:0000000000000000000000000000000000000054000000000000000000000000
#073361:00000000000000000000001400000000
#0733a1:00000000000000000000000000240000
#074321:00000014000024000000000000000000
#074361:0000000000000000005400000000000000000000000000000000000000000000
#0743a0:00000014000024000000000000000000
#074360:000000000000000000000000000000000000000000000000000000000000000000000000000000000000000000000000000000000000000000000000000000000000000000000000000000000000000000000000000000000000000000000000000000000000000000000000000000000000000000000000000000000000000000000000000000000000000000000000000000000000000000000000000000000000000000000000000000000000000000000000000000000000000000000000000000000000000000000000000000000000000000000000000000000000000000000000000000000000000000000000000000000000000000000000000000000000000000000000000000000000000000000000000000000000000000000000000000000000000000000000000000000000000000000000000000000000000000000000000000000000000000000000000000000000000000000000000000000000000000000000000000000000000000000000000000000000000000000000000000000000000000000000000000000000000000000000000000000000000000000000000000000000000000000000000000000000000000000000000000000000000000000000000000000000000000000000000000000000000000000000000000000000000000000000000000000000000000000000000000000000000000000000000000000000000000000000000000000000000000000000005400000000000000000000000000000000000000000000000000000000000000000000000000000000000000000000000000000000000000000000000000000000000000000000000000000000000000000000000000000000000000000000000000000000000000000000000000000000000000000000000000000000000000000000000000000000000000000000000000000000000000000000000000000000000000000000000000000000000000000000000000000000000000000000000000000000000000000000000000000000000000000000000000000000000000000000000000000000000000000000000000000000000000000000000000000000000000000000000000000000000000000000000000000000000000000000000000000000000000000000000000000000000000000000000000000000000000000000000000000000000000000000000000000000000000000000000000000000000000000000000000000000000000000000000000000000000000000000000000000000000000000000000000000000000000000000000000000000000000000000000000000000000000000000000000000000000000000000000000000000000000000000000000000000000000000000000000000000000000000000000000000000000000000000000000000000000000000000000000000000000000000000000000000000000000000000000000000000000000000000000000000000000000000000000000000000000000000000000000000000000000000000000000000000000000000000000000000000000000000000000000000000000000000000000000000000000000000000000000000000000000000000000000000000000000000000000000000000000000000000000000000000000000000000000000000000000000000000000000000000000000000000000000000000000000000000000000000000000000000000000000000000000000000000000000000000000000000000000000000000000000000000000000000000000000000000000000000000000000000000000000000000000000000000000000000000000000000000000000000000000000000000000000000000000000000000000000000000000000000000000000000000000000000000000000000000000000000000000000000000000000000000000000000000000000000000000000000000000000000000000000000000000000000000000000000000000000000000000000000000000000000000000000000000000000000000000000000000000000000000000000000000000000000000000000000000000000000000000000000000000000000000000000000000000000000000000000000000000000000000000000000000000000000000000000000000000000000000000000000000000000000000000000000000000000000000000000000000000000000000000000000000000000000000000000000000000000000000000000000000000000000000000000000000000000000000000000000000000000000000000000000000000000000000000000000000000000000000000000000000000000000000000000000000000000000000000000000000000000000000000000000000000000000000000000000000000000000000000000000000000000000000000000000000000000000000000000000000000000000000000000000000000000000000000000000000000000000000000000000000000000000000000000000000000000000000000000000000000000000000000000000000000000000000000000000000000000000000000000000000000000000000000000000000000000000000000000000000000000000000
#076320:16000026000000000000000000000000
#076380:0000005600000000000000000000000000000000000000000000000000000000
#076380:00000000160000260000000000000000
#076320:0000000000000000000000560000000000000000000000000000000000000000
#077370:0013002300000000
#0773b0:00330000
#077321:0000001323000000
#077371:00000000000000000000001300000000
#077321:0000000000000023
#0773b0:00000000000000000000001300000000
#077360:0000000000000023
#078360:0013002300000000
#078320:00330000
#0783b1:0000001323000000
#078361:00000000000000000000001300000000
#0783b1:0000000000000023
#078320:00000000000000000000001300000000
#078370:0000000000000023
#079370:0013002300000000
#0793b0:00330000
#079321:0000001323000000
#079371:00000000000000000000001300000000
#079321:0000000000000023
#0793b0:00000000000000000000001300000000
#079360:0000000000000023
#080370:0013000000000000
#080320:00000000002300000000000000000000
#080361:00000000001300000000000000000000
#0803b1:0023
#080320:0013
#080370:000023
#0803b1:000013
#080361:000000000023
#080320:000000000013
#081370:33
#081320:002300000000
#0813b1:132300
#081361:003300000000
#081370:000000001200000000220000
#081360:00000000000000000000000000000000000000000000005200520052005200520052005200520052005200520052005200000000000000000000000000000000
#081380:0000000000000000000000005252525252525252525252520000000000000000
