This file was generated by Ched 2.6.4.0.
#TITLE ""
#ARTIST ""
#DESIGNER ""
#DIFFICULTY 0
#PLAYLEVEL
#SONGID ""
#WAVE ""
#WAVEOFFSET 0
#JACKET ""
#REQUEST "ticks_per_beat 480"
#00002: 4
#BPM01: 154
#00008: 01
#TIL00: ""
#HISPEED 00
#MEASUREHS 00
#04718:14141414
#0041a:1414
#00414:00140000
#00512:1414
#00518:00140000
#0061a:1414
#00614:00140000
#0091a:14141400
#00910:41
#01014:14141400
#01118:14141400
#01212:14141400
#01518:14
#01512:00140000
#0151a:0014
#01514:00000014
#01618:14
#01612:00140000
#0161a:0014
#01614:00000014
#01718:14
#01712:0014
#01714:00000014
#02514:00140000
#0251a:2414
#02510:41
#02612:1414
#02618:00140000
#04812:14141414
#0771a:1414
#07714:00140000
#07812:1414
#07818:00140000
#0791a:1414
#07914:00140000
#02112:14000014
#0211a:0014
#01914:0014
#0191a:00000014
#02012:14
#02018:00140000
#02014:0014
#0201a:00000014
#02218:14
#0221a:00000014
#02212:0014
#03318:00140000
#03312:2414
#0341a:1414
#03414:00140000
#02714:00140000
#02718:14
#0271a:0014
#02712:00000014
#02912:14
#02914:0014
#02918:00140000
#0291a:00000014
#03018:00140000
#03014:14
#03012:0014
#03712:14
#0371a:0014
#03718:24
#03714:0024
#03812:14
#0381a:0014
#03818:24
#03814:0024
#03918:14
#03914:00140000
#03919:0014
#03913:00000014
#0451a:14141414
#04510:41
#04614:14141414
#05114:00140014
#05118:1414
#05212:0014
#0521a:14
#05414:0014
#05412:24
#0541a:24
#05518:0014
#0551a:24
#05512:24
#05614:14
#0561a:00140000
#05618:00000014
#05612:0014
#05718:0014
#05712:24
#0571a:24
#05814:0014
#0581a:24
#05812:24
#05912:00140000
#05918:14
#0591a:0014
#05914:00000014
#05318:0014
#0531f:11
#0531a:24
#05312:24
#0311a:14
#03118:0014
#03114:00140000
#03112:00000014
#03214:00140000
#03218:14
#0321a:0014
#03518:00140000
#03514:14
#03512:0014
#0351a:00000014
#03510:41
#06118:00140000
#06112:2414
#0611f:21
#0621a:1414
#06214:00140000
#06210:41
#06914:00140000
#0691a:2414
#07012:1414
#07018:00140000
#06318:00140000
#06314:14
#06312:0014
#0631a:00000014
#0651a:14
#06518:0014
#06514:00140000
#06512:00000014
#06614:00140000
#06618:14
#0661a:0014
#0731a:14
#07312:0014
#07314:24
#07318:0024
#0741a:14
#07412:0014
#07414:24
#07418:0024
#07514:14
#07518:00140000
#07513:0014
#07519:00000014
#06712:14
#06714:0014
#06718:00140000
#0671a:00000014
#06818:00140000
#06814:14
#06812:0014
#07114:00140000
#07118:14
#0711a:0014
#07112:00000014
#07110:41
#0181a:0014
#01818:00000014
#06412:0014
#06414:24240000
#06418:0024000000000000
#0721a:0014
#07218:24240000
#07214:0024000000000000
#02414:24
#0401a:24
#04012:00240000
#04013:0024
#04019:0024
#02318:0024
#02314:24
#02818:24240000
#02814:0024000000000000
#03614:24240000
#03618:0024000000000000
#07612:24
#0761a:00240000
#07613:0024
#07619:0024
#00212:00340000
#0021a:0034003400000000
#00219:000034
#00213:0034
#00214:000000000034
#04219:00340000
#04413:00340000
#05014:00343400
#04918:00343400
#03052:0014
#06058:0014
#0325a:0014
#0665a:0014
#06852:0014
#01754:00000024
#01752:0054
#0185a:0064
#01858:00000024
#02454:0014
#06454:00540000
#06452:0024
#0725a:0024
#07258:00640000
#0013a0:1400003400003400
#0023a0:5434003400000000
#002390:000034
#003380:24
#001321:1400003400003400
#002321:54340000
#002331:0034
#002341:000000000034
#003341:24
#007341:14
#008321:24
#0133a1:1424
#013381:00340000
#014321:1424
#014341:00340000
#017321:0014
#017341:00000034
#018321:24
#0183a1:0014
#018381:00000034
#0193a1:24
#024341:1424
#028381:00140024
#036341:00140024
#041381:14
#0413a1:0000000034000034
#042391:00340000
#042381:00000024
#043341:14
#043321:0000000034000034
#044331:00340000
#044341:00000024
#049381:14343400
#0493a1:00000024
#050341:14343400
#050321:00000024
#060381:1424
#064341:00140024
#064321:0054
#072381:00140024
#0723a1:0054
#080341:143434343434
#081341:343434000000
#081321:00000024
