This file was generated by Ched 2.7.0.0.
#TITLE ""
#ARTIST ""
#DESIGNER ""
#DIFFICULTY 0
#PLAYLEVEL
#SONGID ""
#WAVE ""
#WAVEOFFSET 0
#JACKET ""
#REQUEST "ticks_per_beat 480"
#00002: 4
#BPM01: 190
#00008: 01
#TIL00: ""
#HISPEED 00
#MEASUREHS 00
#01119:14
#01113:14
#01618:14
#01712:14
#01818:14
#01912:14
#0201a:14
#0211a:14
#02214:14
#02314:14
#02818:14
#02810:41
#02918:14
#03012:14
#03112:14
#0121a:14
#01210:41
#01314:14
#0141a:14
#01514:14
#0361a:14
#0361f:11
#03712:14
#03818:14
#03914:14
#0401a:14
#04112:14
#04218:14
#04314:14
#04412:0016
#04418:26
#0441f:21
#04518:1616
#04612:16
#04618:0016
#04712:16
#04718:0016
#04710:41
#05218:0016
#05212:16
#05312:1616
#05418:16
#05412:0016
#05518:16
#05512:0016
#05818:16
#05812:0016
#06318:2616
#06412:16
#06418:0016
#06512:1616
#06618:16
#06612:0016
#06610:41
#06918:16
#06912:0016
#07112:1616
#07218:16
#07212:0016
#07418:0016
#07412:26
#07712:16
#07718:0016
#0871a:14
#0881a:14
#08314:14
#0841a:14
#08512:14
#08612:14
#08018:14
#08112:14
#08218:14
#06112:26
#06718:26
#06812:26
#07018:26
#07318:2626
#07512:26
#07618:26
#07812:26
#05910:41
#07910:41
#001390:14
#002390:24
#003330:14
#004330:24
#005390:14
#006390:24
#007330:14
#008330:34
#010320:26
#0243a0:14
#0253a0:24
#026340:14
#027340:24
#032380:14
#033380:24
#034320:14
#035320:24
#048320:1626
#049380:1626
#050320:1626
#051380:1626
#056380:1626
#057320:1626
#059380:16
#060380:0026
#061320:16
#062320:0026
#067380:1626
#068320:1626
#070380:1626
#075320:1626
#076380:1626
#078320:16
#079320:26
#089320:14
#090320:24
#0913a0:14
#0923a0:34003424
