This file was generated by Ched 2.7.0.0.
#TITLE ""
#ARTIST ""
#DESIGNER ""
#DIFFICULTY 0
#PLAYLEVEL
#SONGID ""
#WAVE ""
#WAVEOFFSET 0
#JACKET ""
#REQUEST "ticks_per_beat 480"
#00002: 4
#BPM01: 190
#00008: 01
#TIL00: ""
#HISPEED 00
#MEASUREHS 00
#00112:13000013
#00116:0000001313000000
#00119:0000000000000013
#00117:13
#00217:00130000
#0021b:0013
#00218:00000013
#00214:0000000000000013
#00312:00130000
#00317:00000013
#00316:13
#00412:0013
#0041b:1300000000130023
#00416:0000000000000013
#0051b:00130000
#00515:0000001300130013
#00518:0013
#00612:23130000
#00618:1300001300130013
#00615:0013
#0071b:23130000
#00715:1300001300130000
#00718:0000000013000013
#00712:00000013
#00815:13
#01018:00141414
#01014:0000001400140014
#01113:0015000000000000
#01116:00150000
#01118:00000013
#01115:0000000000000013
#01119:2500002500000000
#01112:0000002500000000
#0121b:1300000000130000
#01215:00130013
#01212:1313
#01218:0000130000000013
#01210:41
#01814:0014000000000000
#01815:0014
#01817:0000000000140000
#01816:14
#01818:00240000
#01813:00000024
#01812:00240000
#01819:00000024
#01918:14
#01916:0014000000001300
#0191b:00001313
#0191a:00240000
#01914:00240000
#02415:0000131300000013
#02412:0000000000130000
#02418:0000001300001300
#0241b:13
#02518:0000131300000013
#0251b:1300000000130000
#02515:0000001300001300
#02512:13
#0271b:00130000
#02718:0000000013130013
#02715:00000000000000000013000000000000
#02712:0000001300001300
#03612:24130000
#03615:0013
#0361f:11
#03715:13130000
#0371b:0013
#03818:13130000
#0381b:0013
#03916:0013000000000000
#03919:00130000
#03914:0000001300000000
#0391a:00000014
#0391b:13
#03917:0013
#03912:0000000000130000
#03915:00000013
#04012:2400130000000013
#0401b:0000001300131300
#04112:0013130000000013
#0411b:0000001300131300
#04213:0013
#04212:00000013
#04214:00130000
#04215:13
#0431a:0000001400000000
#04317:14
#04312:00140000000000000000000000000000
#04318:0014000000000000
#04313:00000014000000000000000000000000
#04319:00140000
#04314:00000000001400000000000000000000
#04416:13
#04415:0000001300000013
#0441b:2313
#04418:00130013
#04412:0013
#0441f:21
#04518:00000013
#04515:0000000000000013
#0451b:13
#04718:16001313
#04715:0000000000130000
#04712:1300131300000013
#0471b:0000130000000013
#04710:41
#04815:0000131300000013
#04818:0000001300001300
#04817:00130000000000000000000000000000
#0481b:0000000000130000
#04812:0013
#0491b:1300000000130000
#04915:0000131300000013
#04912:13
#04918:0000001300001300
#05018:0000131300000013
#05012:1300000000130000
#05015:0000001300001300
#0501b:13
#05112:13131313
#0511b:00000013000000000000000000001300
#05117:0000000000130000
#05813:00000000000000000000000000001414
#05812:1300000000000000000000000000000000000000130000000000000000140000
#0581b:1300000000130000
#05818:0000001300001300
#05815:00130000
#05814:0000000000000000000000000000000000000000000000000000000000000014
#06118:13
#0611b:00130000
#06112:00130000
#06115:23
#04618:1616
#04612:13161316
#0461b:00130013
#06018:0013000000130000
#06012:0013000000130000
#06015:00130013
#0601a:0000002400000000
#01312:1313
#01315:00130013
#01319:00000013
#0131b:00000013000000000000000000000000
#01415:0013000000000000
#01412:0000000013002424
#01418:0000000000000013
#0141a:2424000000000000
#01417:0000002424000000
#01518:0000000000131313
#01515:00002400240000000000001300130000
#0151b:00132300
#01512:0023
#02318:0000001313000000
#0231b:23130013
#02312:13131300
#02316:00000013
#02314:0000000000330033
#03512:0000000000130000
#0351a:00000014
#03517:0013
#03515:00000013
#0351b:13
#03516:0013000000000000
#03514:0000001300000000
#03519:00130000
#02615:0000131300000000
#02612:1300000000230000
#0261b:13
#02618:0000001300000023
#0281b:1313
#02818:00130013
#02815:0000001300130013
#02812:2313
#02810:41
#02915:00130013
#02918:0000001300130013
#0291b:1313
#02912:2313
#03112:23130013
#0311b:13131300
#03115:0013
#03117:00000013
#03118:0000001300000000
#03119:0000000000330033
#03218:0000131300000013
#0321b:0000000000130000
#03215:0000001300001300
#03212:13
#03315:0000131300000013
#03312:1300000000130000
#03318:0000001300001300
#0331b:13
#0301b:1313
#03018:00130013
#03015:0000001300130013
#03012:2313
#03412:1300130000000013
#03418:0000000000130000
#06316:13140000
#06314:0000001400000000
#06318:00000014
#06315:0000000000000014
#06312:0014
#0631a:2414
#0641a:14000014
#06416:0000000000000014
#06412:2323
#06418:00230000
#06714:0000000000000014
#06717:00130000000000000000000014000000
#0671a:0000001400140000
#06715:0000001300000000
#06712:00141300
#0681b:13
#06812:24140000
#0681a:0000001400140000
#06814:0000000000000014
#06816:0000001300000000
#06817:00000014
#0691a:24140000
#06912:1300001400140000
#06915:00000014
#06917:0000001300000000
#06918:0000000000000013
#0661b:0000000000000013
#06615:00001414
#06618:2600000000140000
#06612:2400141400000024
#0661a:00140000
#06610:41
#07118:0000001400000000
#07112:2414
#07114:00000014
#07117:1300000000000014
#0711a:0014
#07116:00140000
#07212:14000014
#07216:0000000000000014
#0721b:2323
#07215:00230000
#07815:00000015000000000000000013000000
#07812:0013
#07818:0000000000000013
#08118:0013000000000000
#0811b:0013
#08115:0000002424000013
#08112:2424000000000000
#08112:24
#0811a:0000000000002424
#0831a:00000014
#08312:00000014
#08512:1414000000001300
#0851a:14
#08515:0000001414000000
#0851b:0000001300000000
#08517:0000000000001414
#0861a:0014140000000000
#08615:0013000000130000
#08618:0013
#0861b:00000013
#0871a:1414000000000000
#08717:0000001414000000
#08712:0000001300000000
#08715:0000000000001414
#0871b:00000013
#08812:0014140000001300
#08818:0013000000130000
#08815:0013
#08917:0014000000000000
#08914:14
#08918:0014
#08915:0000000000140000
#08912:00000024
#0891a:00240000
#09014:14
#09017:0014000000000000
#09018:0014
#09015:0000000000140000
#0901a:00240000
#09012:00000024
#05715:0000002300001300
#05718:0000130000000013
#0571b:1300002300230000
#05712:1300000000230000
#05615:0000002300001300
#05618:0000130000000013
#05616:00130000000000000000000000000000
#0561b:0000002300230000
#05612:0000000000230000
#0551b:1300131300000013
#05515:00001313
#05512:1600130000000013
#05518:0000000000130000
#0591a:2414002400140024
#05913:14141414141414141414141414140000
#05912:0014000000140000001400000014000000140000001400000014000000000000
#05914:0000001400000014000000140000001400000014000000140000001400000000
#05910:41
#0751a:2400142400240000
#07514:0000000000000014
#07517:00000014
#07512:1300002400240000
#0761b:13
#07612:2400142400240000
#07618:0000000000000014
#07615:00000014
#0761a:0000002400240000
#0771a:2400001400140000
#07715:0014000000000000
#07718:00140000
#07712:1400001300000000
#07716:0000000000130000
#07719:0000000000000025
#07912:1300000000130000
#07918:00130013
#0791b:2313
#07915:0000130000000013
#07910:41
#0801b:1313
#08018:00130013
#08014:00000013
#08012:00000013000000000000000000000000
#02118:00130013
#02112:1300000000130000
#02115:0000001300000013
#0211b:2313
#02212:1313
#02215:00130013
#0221b:2300000000130000
#02218:0000001300000013
#02015:00130013
#0201b:2300000000130000
#02018:0000001300000013
#02012:0013
#05217:13
#05218:0000001300000013
#05212:2313
#05215:00130013
#0521b:0013
#05315:00000013
#05318:0000000000000013
#05312:13
#05412:16131613
#05418:00160016
#0541b:1313
#0701a:0000000000140014
#0701b:00000013000000000000000000000000
#07012:24242424
#0741a:00140000
#07412:00140000
#07418:0000000013131313
#07415:00000000000000000013001300130000
#07413:2a
#08212:00130000
#08217:0024240000000000
#08218:0023
#08215:00000023
#01612:1300000000130000
#01618:00130013
#0161b:1313
#01615:0000130000000013
#0171b:1313
#01718:00130013
#01714:00000013
#01712:00000013000000000000000000000000
#06518:2626
#06512:24262426
#0651a:00240024
#09218:00002626
#09212:2400240000260000
#0921a:00240000
#09216:0024000000000000
#09112:24240024
#0911a:00242424
#09116:0024000000240000
#07312:24
#07316:00240000
#07315:0026
#07314:00000028
#0731a:24
#0435a:0000001400000000
#0395a:00000014
#0445b:13
#04456:63
#05058:0000002300000053
#05052:63
#05853:00000000000000000000000000006464
#05852:0000000000000000000000000000000000000000000000000000000000240000
#0585b:23
#05854:0000000000000000000000000000000000000000000000000000000000000024
#06158:53
#0615b:00230000
#06152:00230000
#06155:63
#06252:00000016
#06258:00000016
#00456:0000000000000053
#0045b:13
#00157:53
#00658:53
#00755:63
#00758:0000000000000063
#00855:63
#01858:00140000
#01853:00000014
#0195a:00140000
#01956:00000053
#02352:0053
#02356:00000053
#0245b:63
#02458:0000005300000000
#0285b:13
#0335b:63
#03358:0000005300000000
#0315b:0063
#03157:00000063
#03252:53
#03255:0000006300000000
#0475b:0000000000000063
#04758:46
#04857:00230000000000000000000000000000
#04855:0000005300000000
#04852:0023
#04955:0000002300000000
#0495b:63
#02552:53
#02555:0000006300000000
#0265b:63
#02658:0000005300000000
#03458:0000000000530000
#06356:63
#0635a:14
#0665b:0000000000000063
#06658:46
#06757:00230000000000000000000000000000
#06755:0000005300000000
#06752:0023
#06957:0000002300000000
#06952:53
#06958:0000000000000053
#07855:00000025000000000000000000000000
#07759:0000000000000065
#07752:0000006300000000
#07756:0000000000530000
#0775a:14
#08352:00000024
#0835a:00000024
#08255:00000063
#08258:0063
#08257:00140000
#09258:00004646
#09252:1400000000360000
#0125b:53
#01258:0000230000000053
#01252:13
#01352:0053
#01355:00000023
#0135b:00000023000000000000000000000000
#07955:0000230000000063
#07952:63
#0795b:13
#0805b:0063
#08058:00000023
#08052:00000023000000000000000000000000
#0855a:14
#08752:14
#09152:14
#0915a:0014
#08954:14
#02052:13
#0355a:00000014
#04658:4646
#04652:00360036
#0515b:00000023000000000000000000000000
#05257:53
#05252:33
#05452:3636
#05458:00460046
#05552:3600000000000053
#0595a:0000000000000014
#05953:64646464646464646464646464640000
#05952:0024000000240000002400000024000000240000002400000024000000000000
#05954:0000002400000024000000240000002400000024000000240000002400000000
#0605a:0000001400000000
#07157:53
#07152:34
#06558:4646
#06552:00360036
#03652:14
#01159:0000001500000000
#01152:0000001500000000
#05752:53
#0685b:53
#06856:0000002300000000
#07356:00140000
#07355:0016
#07354:00000018
#07453:1a
#0765b:53
#07652:14
#0755a:14
#07552:63
#04052:14
#08152:0014000000000000
#08155:0014
#0815a:0000000000000014
#05656:00230000000000000000000000000000
#0705b:00000023000000000000000000000000
#01652:63
#01655:0000230000000063
#0165b:13
#0175b:0063
#01758:00000023
#01752:00000023000000000000000000000000
#001370:13
#0013b0:0000003323000000
#002360:1323
#002320:00330000
#0033b0:1323
#003370:00330000
#003361:0013
#003321:00000033
#004361:23
#004361:0000000000000013
#005321:00230000
#006381:13
#0063b1:00230000
#007351:13
#007321:00230000
#007381:0000000000000013
#010381:26
#008350:13
#010320:26
#0123b0:1323
#012380:00530000
#012380:0000000000000013
#0133b0:00000053000000000000000000000000
#013380:0023
#013321:0013
#013351:00000053
#014321:23
#016321:1323
#016351:00530000
#016351:0000000000000013
#017321:00000053000000000000000000000000
#017351:0023
#0173b0:0013
#017380:00000053
#0183b0:23
#019360:00001333
#019320:0000000000330000
#020320:23
#023320:0013
#023340:0000000000330033
#023360:00000033
#024320:23
#0243b1:1300000000230000
#024381:0000333300000000
#025321:1300000000230000
#025351:0000333300000000
#0263b1:1300000000230000
#026381:0000333300000000
#027351:13230000
#0313b1:0013
#031391:0000000000330033
#031371:00000033
#0323b1:23
#032320:13
#032350:00230000
#032350:0000001300000000
#032320:0000000000230000
#0333b0:13
#033380:00230000
#033380:0000001300000000
#0333b0:0000000000230000
#0343b0:13
#034380:00230000
#034380:0000001323000000
#034351:0000000013230000
#034380:0000000000130000
#0343b0:0000000000000023
#0363b0:1333
#0363a0:0000000000330000
#036390:00000033
#036380:0000000000000033
#037380:0000002300000000
#037321:0000001300000033
#037351:00003333
#038321:33330000
#038331:0000003300000000
#038341:0033
#038351:0000000000330033
#039351:23
#040381:13230000
#040351:00001323
#041381:13230000
#041351:00001323
#042381:13
#0423b1:00000023
#044361:13
#044321:00230000
#045321:13
#045351:00230000
#045380:00130000
#0453b0:0023
#045321:0013
#045351:00000023
#0473b1:0000000000000013
#048371:00530000000000000000000000000000
#0483b1:00230000
#048351:0000001300230000
#048321:0053
#0493b1:13
#049381:00230000
#049351:0000001300000000
#049321:0000000000230000
#050321:13
#050351:00230000
#050381:0000001300000000
#0503b1:0000000000230000
#050381:0000000000000013
#0513b1:00000053000000000000000000000000
#051371:0023
#051361:0000000000000013
#051341:00000000000000000000000000000033
#052321:23
#052370:13
#0523b0:00230000
#0533b0:13
#053380:00230000
#053351:00130000
#053321:0023
#0533b0:0013
#053380:00000023
#055320:0000000000000013
#056360:00530000000000000000000000000000
#056320:00230000
#057320:13
#057350:00230000
#0583b0:13
#058380:00230000
#058330:00000000000000000000000000001454
#058320:0000000000000000000000000000000000000000000000000000000000540000
#058340:0000000000000000000000000000000000000000000000000000000000000054
#059330:54545454545454545454545454542400
#059320:0054000000540000005400000054000000540000005400000054000000000000
#059340:0000005400000054000000540000005400000054000000540000005400000000
#061380:1300000000000033
#0613b0:00530000
#062380:00000026
#061351:1300000000000033
#061321:00530000
#062321:00000026
#063361:13
#063321:00230000
#064321:13
#064351:00230000
#064380:00130000
#0643b0:0023
#064321:0013
#064351:00000023
#0663b1:0000000000000013
#067371:00530000000000000000000000000000
#0673b1:00230000
#067351:0000001300230000
#067321:0053
#0683b1:13
#068371:00230000
#068361:0000001300000000
#068321:0000000000230000
#069321:13
#069361:00230000
#069371:0000001300000000
#0693b1:0000000000230000
#069381:0000000000000013
#0703b1:00000053000000000000000000000000
#070371:0023
#070361:0000000000000014
#070341:00000000000000000000000000000034
#071321:24
#071370:13
#0713b0:00230000
#0723b0:13
#072380:00230000
#072351:00130000
#072321:0023
#0723b0:0013
#072380:00000023
#075320:13
#075360:00230000
#0763b0:13
#076370:00230000
#077320:0000001300000023
#077360:0000000000530000
#077391:0000000000000015
#078351:00000055000000000000000000000000
#078391:0025
#079321:1323
#079351:00530000
#079351:0000000000000013
#080321:00000053000000000000000000000000
#080351:0023
#0803b0:0013
#080380:00000053
#0813b0:23
#082380:0013
#0833a0:00000054
#084380:00000026
#082351:00000013
#083321:00000054
#084321:00000026
#086321:00000014
#087321:24
#0883b1:00000013
#0893b1:23
#089341:00142400
#089381:00000014
#090381:24
#090341:00140000
#090321:0024
#090381:00000014
#0913a1:24
#091321:00142400
#0913a1:00000014
#0923a1:24
#092321:00142400
