This file was generated by Ched 2.7.0.0.
#TITLE ""
#ARTIST ""
#DESIGNER ""
#DIFFICULTY 0
#PLAYLEVEL
#SONGID ""
#WAVE ""
#WAVEOFFSET 0
#JACKET ""
#REQUEST "ticks_per_beat 480"
#00002: 4
#BPM01: 190
#00008: 01
#TIL00: ""
#HISPEED 00
#MEASUREHS 00
#00115:00000013
#00118:1300000000000013
#00218:00000013
#00215:0000000000000013
#00415:0000000013000013
#0041b:0000000000130000
#00515:0000000000000013
#00618:1300000000000013
#00715:1300001300000013
#00718:0013
#00712:0000000000130000
#0071b:00130013
#00818:13
#01012:00141414
#01118:24140013
#01115:0000000000000013
#01114:0014002400000000
#01215:0000000000130013
#01218:13000013
#01210:41
#01813:0014
#01812:14
#01818:00240000
#01819:00000024
#01914:14
#01915:0013
#01918:0000000000130000
#01912:00000013
#0191a:00240000
#03718:0000001313000000
#03715:00000013
#0371b:0000000000000013
#04418:1300000000000013
#04415:00000013
#0441f:21
#04515:0000000000000013
#04518:00000013
#04715:0013
#0471b:0000000000130000
#04712:0000000000000013
#0471a:14
#04710:41
#04815:0000000000000013
#04816:00130000000000000000000000000000
#04818:0000001300000000
#0481b:0000000000130000
#04812:0000000000130000
#0491b:1300000000130000
#04918:0000000000000013
#04912:0000000000130000
#04915:0000001300000000
#05018:0000001300130013
#05015:00000013
#05012:13
#0511b:00000013000000000000000000000000
#05819:00000000000000000000000000001414
#0581a:0000000000000000000000000000000000000000000000000000000000140000
#05818:1300000000000000000000000000000000000000130000000000000000000014
#05815:0000001300000000
#05812:00000013
#0611b:13
#06115:0000000000000013
#06118:0000000000000013
#06112:23
#06015:0013000000000000
#06012:0000000000130000
#0601b:00000013
#06019:0000002400000000
#03515:0000000000130013
#03518:00001313
#02412:13
#02418:0000001300000000
#0241b:0000000000003333
#06318:1300000000000014
#06314:00000014
#07816:00000000001400000000000000000000
#0851b:0013000000000013
#08515:13000013
#08518:0013
#08512:0000001300000000
#08612:0013000000000000
#08618:00130000
#08614:0000000000330000
#08916:0014000000140000
#0891a:00001424
#08912:14240000
#09012:14240024
#09016:0014000000140000
#0901a:0014
#02115:00130013
#0211b:2300000000130000
#02118:0000001300000013
#02015:0000130000000013
#02018:0000001300001300
#02012:0000000000130000
#0201b:13
#02218:00130000
#02215:0000001300000000
#0221b:0000000000130000
#02212:2300000000130000
#05919:14141414141414141414141414142400
#0591a:0014000000140000001400000014000000140000001400000014000000000000
#05918:0000001400000014000000140000001400000014000000140000001400000000
#05910:41
#01618:0000000000130013
#01615:00000013
#0251b:13
#02515:0000001300000000
#02512:0000000000003333
#02612:13
#02618:0000001300000000
#02615:0000000000130000
#0261b:0000000000130000
#02918:00130013
#02912:2300000000130000
#02915:0000001300000013
#02818:0000130000000013
#02815:0000001300001300
#0281b:0000000000130000
#02812:13
#02810:41
#03015:00130000
#03018:0000001300000000
#03012:0000000000130000
#0301b:2300000000130000
#0321b:13
#03215:0000001300000000
#03212:0000000000000033
#03312:13
#03318:0000001300000000
#03315:00000013
#0331b:0000000000130013
#03415:1313
#0341b:0000001300000013
#03418:0000000000130000
#03412:0000000000000013
#0361b:23130000
#0361f:11
#03812:13
#03912:0000000000000013
#03915:00001313
#03918:0000000000130000
#04015:0000001300001300
#0401b:0000000000130000
#04018:0000000000000013
#04112:1300000000130000
#04115:0000130000000013
#0411b:0000001300000000
#04118:00000013
#04312:14
#0431a:14
#05215:1300000000000013
#05218:00000013
#05318:0000000000000013
#05315:00000013
#05412:1414
#0541a:00140014
#05512:14
#0551b:0013
#05515:0000000000130000
#05518:0000000000000013
#05618:0000000000000013
#05612:0000002300230000
#05715:1300000000000013
#0571b:0000002300230000
#06418:00000014
#06414:0000000000000014
#06412:23
#07115:13
#07118:00000014
#07114:0000000000000014
#07214:00000014
#07218:0000000000000014
#0721b:23
#07918:0000000000130013
#07915:13000013
#07910:41
#0461a:1414
#04612:00140014
#06614:0014
#0661a:0000000000140000
#06612:0000000000000013
#06619:25
#06610:41
#06714:0000000000000014
#06716:00130000000000000000000000000000
#06718:0000001400000000
#0671a:0000000000140000
#06712:0000000000140000
#0681b:13
#06818:0000000000000014
#06812:0000000000140000
#06814:0000001400000000
#0681a:0000000000140000
#06918:0000001400140013
#06914:00000014
#06912:13
#0701b:00000013000000000000000000000000
#07418:0000000014000013
#07412:2600000000140000
#07518:0000000000000014
#07512:0000002400240000
#07615:13
#07612:0000000000000014
#0761a:0000002400240000
#07714:0014000000000000
#07718:14
#0771a:0000140000140024
#07716:0000001400000000
#07712:0000000000140000
#04217:0000001300000000
#0421b:13
#08712:0013000000000013
#08718:13000013
#08715:0013
#0871b:0000001300000000
#0881b:0013000000000000
#08815:00130000
#08819:0000000000330000
#0141a:2424000000000000
#01416:0000002424000000
#01412:0000000000002424
#01516:0024240000000000
#06519:2525
#06512:00250025
#09218:0000000000260000
#09212:00002626
#0921a:24240000
#09216:0024000000000000
#08212:00000024
#08216:0024240000000000
#08214:0024
#09112:00002424
#0911a:24240000
#09116:0024000000240000
#07314:24
#07318:00250026
#07313:0025
#0811a:2424000000000000
#08116:0000002424000000
#08112:0000000000002424
#02314:0000000000330033
#03119:0000000000330033
#05058:0000000000000053
#05052:63
#05859:00000000000000000000000000005454
#0585a:0000000000000000000000000000000000000000000000000000000000240000
#05858:5300000000000000000000000000000000000000000000000000000000000024
#0615b:53
#06152:63
#06155:0000000000000023
#06158:0000000000000023
#06252:00000013
#0625b:00000013
#00158:53
#00658:53
#00858:53
#01858:00140000
#01859:00000014
#0195a:00140000
#02452:53
#04458:53
#04752:0000000000000053
#0475a:14
#04856:00230000000000000000000000000000
#06358:53
#07856:00000000002400000000000000000000
#0775a:0000000000000064
#01258:53
#01255:0000000000000063
#0915a:14
#09152:0014
#0515b:00000023000000000000000000000000
#05959:54545454545454545454545454541400
#0595a:0024000000240000002400000024000000240000002400000024000000000000
#05958:0000002400000024000000240000002400000024000000240000002400000000
#06059:0000001400000000
#0495b:63
#07358:00150016
#07353:0015
#07452:16
#07458:0000000000000053
#01658:0000000000000053
#01652:13
#0045b:13
#00455:0000000000000063
#01154:0000001400000000
#0255b:63
#02652:53
#0205b:13
#02852:13
#0325b:63
#03352:53
#05255:63
#05755:53
#07155:63
#07955:63
#07958:0000000000000063
#09252:00001616
#09258:0000000000160000
#0925a:14
#06559:1515
#06552:00150015
#06659:15
#06652:0000000000000053
#05452:1414
#0545a:00140014
#05552:14
#05558:0000000000000053
#0465a:1414
#04652:00140014
#0685b:63
#06958:0000000000000053
#06952:63
#0705b:00000023000000000000000000000000
#06756:00230000000000000000000000000000
#07655:53
#0425b:53
#04257:0000002300000000
#001380:13
#0013b0:0000003323000000
#002350:1323
#002320:00330000
#0033b0:1333
#003380:00330033
#0043b0:23
#004350:0000000000000013
#005320:0000333333230000
#006380:13
#0063b0:0000333333230000
#008380:13
#010350:29
#012380:13
#0123b0:0023
#012350:0000000000000013
#013320:0023
#015350:0013
#016320:23
#016380:0000000000000013
#0173b0:0023
#022380:0000000000000013
#023380:00230000
#023320:0013
#023340:0000000000330033
#023350:00000033
#024320:33
#024350:00230000
#024380:0000000000130000
#0243b0:0000000000003333
#0253b0:33
#025380:00230000
#025350:0000000000130000
#025320:0000000000003333
#026320:33
#026350:00230000
#026380:0000000000000013
#027380:0023
#030350:0000000000000013
#031350:00230000
#0313b0:0013
#031390:0000000000330033
#031380:00000033
#0323b0:33
#032380:00230000
#032350:0000000000130000
#032320:0000000000000033
#033320:33
#033350:00230000
#036350:0013
#036340:0000000000330000
#036330:00000033
#036320:0000000000000033
#037350:00230000
#038380:0000130000000033
#038390:0000003300000000
#0383a0:0033
#0383b0:0000000000330000
#0393b0:00230000
#040380:13
#0403b0:00230000
#0423b0:13000023
#042370:0000005300000000
#044380:13
#0443b0:0000003323000000
#045320:1323
#045350:00330000
#047320:0000000000000013
#048360:00530000000000000000000000000000
#048320:00230000
#0493b0:13
#049380:00230000
#050320:13
#050350:00230000
#050380:0000000000000013
#0513b0:00000053000000000000000000000000
#051380:0023
#052350:13
#052320:0000003323000000
#0533b0:1323
#053380:00330000
#055380:0000000000000013
#0563b0:00230000
#057350:13
#057320:00230000
#058380:13
#0583b0:00230000
#058390:00000000000000000000000000001454
#0583a0:0000000000000000000000000000000000000000000000000000000000540000
#058380:0000000000000000000000000000000000000000000000000000000000000054
#059390:54545454545454545454545454542400
#0593a0:0054000000540000005400000054000000540000005400000054000000000000
#059380:0000005400000054000000540000005400000054000000540000005400000000
#061320:13
#061350:0000000000000033
#062320:00000023
#0613b1:13
#061381:0000000000000033
#0623b1:00000023
#063381:13
#0633b1:0000003323000000
#064321:1323
#064351:00330000
#066321:0000000000000013
#067361:00530000000000000000000000000000
#067321:00230000
#0683b1:13
#068381:00230000
#069321:13
#069351:00230000
#069381:0000000000000013
#0703b1:00000053000000000000000000000000
#070381:0023
#071351:13
#071321:0000003323000000
#0723b1:1323
#072381:00330000
#074381:0000000000000013
#0753b1:00230000
#076351:13
#076321:00230000
#0773a1:0000000000000014
#078361:00000000005400000000000000000000
#0783a1:00000024
#079351:13
#079321:0023
#079381:0000000000000013
#0803b1:0023
#082321:00000014
#084321:002c
#086351:0013
#086341:0000000000330000
#086321:00000023
#088381:0013
#088391:0000000000330000
#0883b1:00000023
