This file was generated by Ched 2.7.0.0.
#TITLE ""
#ARTIST ""
#DESIGNER ""
#DIFFICULTY 0
#PLAYLEVEL
#SONGID ""
#WAVE ""
#WAVEOFFSET 0
#JACKET ""
#REQUEST "ticks_per_beat 480"
#00002: 4
#BPM01: 190
#00008: 01
#TIL00: ""
#HISPEED 00
#MEASUREHS 00
#00112:12
#00116:0000000000000012
#00118:12
#00114:0000001200000000
#00219:00120012
#00214:0000000000000012
#00216:12
#0021c:1212
#00412:0012
#0041c:1200000000120022
#00417:0000000000001212
#00517:0000120012000012
#00512:0000001200120000
#00617:1200120012000012
#0061c:0000001200120000
#00612:22
#00717:12121200
#00712:0000001200120000
#00715:00000012
#00718:0000000000000012
#0071c:22
#0101a:00141414
#01016:00000000000014000000140000001414
#01012:14141414
#01116:0014000000000000
#01119:00130000
#01115:00000013
#01118:0000000000000013
#01114:00130000
#01112:2400002400000013
#0111a:2400002400000000
#01216:0000000000130000
#01212:16131313
#0121b:1300000000130000
#01217:0013000000000000
#01218:0000001300000013
#01215:00000000000000000000000000000013
#01210:41
#02012:00141414
#0201b:2300001300130013
#02017:00130013
#02317:00130013
#02312:0000130000131300
#02316:1313
#02314:0013000000000000
#02319:0000001300000000
#0231b:2300000013000013
#02412:1300131300130013
#02415:0013000000001300
#02418:0000000000000013
#0251b:1300131300130013
#0251b:13
#02518:0013000000001300
#02515:0000000000000013
#02712:00000000130000130000000013000000
#0271b:00001313
#02715:00000000000000000013000000000013
#02718:1313000000130013
#03712:13130000
#03716:0000001400000000
#0371b:0013
#03717:00000013
#03719:0000000000000013
#03714:0000000000330033
#0381b:1300130000130000
#03812:00130000
#03816:0000001414130000
#03817:0000000000000013
#04012:2414140014141400
#04019:0000001300000000
#04017:13
#04018:0000000000000013
#0401b:0013
#04016:00000000000000130000000000000000
#04015:00000000000000000000000000000013
#04212:1313000013130000
#0421b:0000131300001313
#04315:14
#04318:00000014000000000000000000000000
#04317:00140000000000000000000000000000
#0431a:0000001400000000
#04312:0000001400000000
#04314:0014000000000000
#04313:00140000
#04319:00000000001400000000000000000000
#04416:13
#04415:0000001300001300
#04418:0000130000000013
#04417:0013
#04412:0013
#0441b:23
#0441f:21
#0451b:1300001300001300
#04516:0013000000130014
#04512:1313
#04517:00130000
#04718:1613
#04715:0000000000130000
#04712:1600141400001400
#0471a:0000141400001400
#0471b:0000000000000013
#04710:41
#04816:0000140000140014
#0481b:0000001300001300
#04817:00130000000000000000000000000000
#04812:13001313
#05016:0000140000140013
#0501b:0000001300001300
#05017:13
#05012:13001313
#0511b:13131313
#05118:0000000000130013
#05115:00000000000000000013000000000013
#05112:0013000000000000000000000000000000000000000000001300000000000000
#05114:00000013000000000000000000000000
#05116:0000000000000000000000130000000000000000000000000000000000000000
#04612:16141614
#04618:00160016
#04616:0014001400140014
#0461a:1414
#01318:0000000000131313
#01317:13
#0131b:0000001300000000
#01315:00000000000000000000000000000013
#01316:00131300
#01312:13
#01518:0000000000131313
#01515:00002600260000000000001300130013
#01512:0013000024000000
#0151b:00130000
#0151a:0024
#02112:14141414
#02117:0000001300000013
#0211b:2300130000130000
#02119:00000013
#02212:14141414
#02218:0000000000000013
#02217:0000131300000000
#0221b:2300000000130000
#0351a:00000014
#03516:0000000000120000
#03512:1c191614
#0351c:0012000000000000
#03519:0000001200000000
#02612:1300131300000000
#02615:0013000000000000
#02617:0000000000220022
#03312:1300131300130013
#03312:13
#03318:0000000000000013
#03315:0013000000001300
#0331b:1300001300000000
#03415:0000130000130000
#03418:0000000000130000
#03412:13
#0831b:00000013
#08312:0000130000130000
#08314:00000013
#08315:1313
#08515:0013000013001300
#08512:0000001300000013
#08518:16
#08612:0013000000000000
#08615:00130000
#08718:0013000013001300
#0871b:0000001300000013
#08712:16
#08812:0013000000000000
#08815:00130000
#08818:16
#08916:0014000000140000
#0891a:00241400
#08912:14000024
#09012:14000024
#09016:0014000000140000
#0901a:00241400
#00316:1212
#0031c:12
#00318:00120012
#00312:00120012
#01612:1313130013001300
#01618:1600001300000013
#01615:00000000000000130000000000000013
#0161b:0000130013131300
#05217:13
#05218:0000001300001300
#05215:0000130000000013
#05216:0013
#0521b:0013
#05212:23
#05312:1300001300001300
#05316:0000130000000014
#0531b:1313
#05317:0013000000130000
#05418:1616
#05412:14161416
#05416:0014001400140014
#0541a:00140014
#0561b:1300130013000013
#05612:00001313
#05616:00130000000024000000240000001400
#0581b:13131300
#05815:0000000000141414
#05819:00000000000000000000001300130000
#05816:1300001300000000
#05812:0013000013000000
#05916:0000000000000014
#05917:0013000000000000
#05919:00130000
#05915:00000013
#05913:0000000000130000
#05912:0000002400000000
#0591a:2400000000000024
#05910:41
#05712:1300130013000013
#0571b:0013000013001300
#05716:0000002400240014
#05717:13
#05512:1600141400001413
#05515:0013
#05518:1600000000130000
#0551a:0000141400001400
#06016:0014001400141400
#06014:00130000
#06019:00130000
#06012:0000002400000000
#06316:1400140014001418
#06312:0000001800000000
#0631a:24
#0641a:00000014
#06416:1413000000130014
#0641b:0000001300000000
#06412:2323
#06417:00230000
#06516:2814001428140014
#06512:23282328
#0651b:00230023
#07416:00000000000000141400140014140000
#0741b:0000001300000013
#0741a:00140000
#07412:26000000140000000013001300001300
#07418:26
#0751b:0000000013000013
#07512:00001313
#07516:00130000140024000000240000001400
#0751a:24
#07617:13
#07612:24001314
#0761a:00000014
#07618:0000000000000013
#0761b:0013
#07616:0000142400240000
#07212:0000001300001400
#07216:1400230000000014
#07217:0013000000130000
#0721b:2323
#07717:0013001300000013
#0771b:0000130000130000
#07712:0000001300000000
#07716:0000000000130000
#0771a:24
#0171b:1313130013001300
#01718:00000000000000130000000000000013
#01715:0000001300000013
#01712:0000130013131300
#01812:1614250000000000
#01816:0014000000000000
#01813:0000000016142500
#01817:0000250000140000
#01818:00000025
#07815:00130000000016000016000000000000
#07817:0016000000000000
#07814:00000013000000000000001600000000
#07813:00000000001300000000000000160000
#07812:00000000000000130000000000000016
#0781a:0000000000130000
#07818:1600000000000013
#07816:00160000
#07819:00000013
#0781b:0013
#00812:14141414
#00912:14141414
#0191b:0000000013131300
#01917:00000014
#01914:1614250000000000
#01918:0014000000000000
#01916:0015
#01912:0000000000140000
#01919:00250000
#03617:0000000000000013
#03616:0000000000141400
#0361b:1313
#03612:2400130000000013
#0361f:11
#0391a:00120014
#03912:001a001800160000
#03918:0012
#03916:00000012
#0391c:12
#0411a:1414140014141400
#04114:0000001300000000
#04116:13
#04115:0000000000000013
#04112:0013
#04117:00000000000000130000000000000000
#04118:00000000000000000000000000000013
#04912:0000001300001300
#04916:1300140000140014
#0491b:13001313
#06615:00001313
#06618:2600000000130023
#0661a:0000141400000000
#06612:2600141400000013
#06610:41
#06716:00130000180000000000180000000000
#06712:0000001300001318
#0671b:23001313
#06917:0000000000000013
#06912:0000001300001300
#06916:1300180000180000
#0691b:23001313
#07015:00000000000000000000130000130013
#07018:00000000000000000013001300001300
#0701b:0013000000000000000000000000000000000000000000001300000000000000
#07019:00000013000000000000000000000000
#07017:0000000000000000000000130000000000000000000000000000000000000000
#07012:24242424
#07116:1400141814001400
#07112:2400000000000018
#0681b:0000001300001300
#06817:13
#06812:2300180013181300
#06816:0000000000000018
#0791b:0000130000130000
#07918:26000000000013000000000013000013
#07915:0000000013000013
#07912:1300000000130000
#07916:0013000000000000
#07910:41
#08015:0000000000131313
#08016:13
#08012:0000001300000000
#08018:00000000130000000000000000000013
#08017:0013
#0801b:13
#08217:00002313
#08212:00131313
#0821b:0013000000000000
#08215:0026260000000000
#0281a:14141414
#02812:2300001300130013
#02816:00130013
#02810:41
#0321b:1300131300130013
#03218:0013000000001300
#03215:0000000000000013
#03212:1300001300000000
#0291a:14141414
#02916:0000001300000013
#02912:2300130000130000
#02914:00000013
#0301a:14141414
#03016:0000131300000000
#03012:2300000000130000
#03015:0000000000000013
#01412:0000001313000013
#0141b:1313000000001300
#01415:2626002626002626
#03117:1313
#03116:00130013
#0311b:0000130000131300
#03112:2300000013000013
#03119:0013000000000000
#03114:0000001300000000
#0811b:0000001313000013
#08112:1313000000001300
#08115:2626002626002626
#09118:0000001400000000
#09114:0000000000000014
#09112:2428000000002400
#0911a:00242400
#09116:0000240000282400
#09218:0000001600000000
#09212:2428000028002800
#0921a:00240000
#09216:0000240000280000
#07318:00232425
#07315:00230000
#07312:24
#0731a:24
#07314:0024
#07313:00000025
#06112:2424002400000028
#06116:00000024240028000000002424000000
#0611a:2400000000240024
#06212:00002400240024000000002400000000
#06216:00000000000028000000240000000024
#0621a:0000240000000024
#06218:00000024
#06214:00000000000000000000000000240000
#05056:0000000000000063
#05057:23
#0505b:0000002300000000
#05052:13
#00457:0000000000000052
#0045c:52
#00456:12
#00158:52
#00657:52
#00757:62
#01857:00150000
#01852:00150000
#01858:00000015
#01853:00000015
#0485b:0000002300000000
#04857:00230000000000000000000000000000
#04852:13
#03458:0000000000530000
#03455:0000000000630000
#03452:0000000000000013
#0345b:0000000000000013
#0835b:00000023
#08355:13
#09256:0000540000480000
#09252:14003838
#09258:0000002600000000
#0125b:53
#01252:16
#01257:0023000000000000
#01357:53
#01356:0063
#09152:14
#0915a:0014
#09154:0000000000000024
#09158:0000002400000000
#09156:00540064
#0435a:0000004400000000
#04352:0000003400000000
#04556:0023000000230000
#0455b:0000002300000000
#04552:6363
#04557:00630000
#04652:3636
#04658:00460046
#0475b:0000000000000063
#04758:46
#04752:36
#05458:4646
#05452:00360036
#0535b:5353
#05357:0023000000230000
#05352:0000002300000000
#05356:00530000
#05152:0023000000000000000000000000000000000000000000000000000000000000
#05156:0000000000000000000000230000000000000000000000000000000000000000
#05154:00000063000000000000000000000000
#05656:00230000000000000000000000000000
#0565b:13
#05552:3600000000000053
#05558:46
#0595a:1400000000000014
#05956:0000000000000054
#05952:0000001400000000
#06052:0000001400000000
#06056:0000006400001400
#06356:6454
#0635a:44
#06456:0023000000230000
#0645b:0000002300000000
#06452:5353
#06457:00530000
#07657:23
#07652:14
#07556:00230000000000000000000000000000
#0755a:14
#07452:3600000000000053
#07458:46
#06556:4848
#06552:00380038
#07257:0023000000230000
#07252:0000002300000000
#0725b:6363
#07256:00630000
#07358:00434445
#07355:00330000
#07354:0034
#07353:00000035
#07756:0000000000530000
#07752:0000005300000000
#0775a:14
#05752:13
#0575b:0023000000000000
#05757:63
#0585b:13
#05852:0023000000000000
#05856:53
#01658:16
#01152:0000001400000000
#0115a:0000001400000000
#00256:62
#0035c:52
#00356:0062
#00358:00520000
#00352:00000062
#00852:14
#01455:1616001616001616
#01555:0016160000000000
#01957:00000054
#01959:00150000
#01954:00150000
#01956:0055
#01952:0000000000540000
#02052:14
#02352:00000053
#0235b:0053
#0355a:00000044
#03652:34630000
#0365b:53
#03657:0000000000000053
#0395a:00000044
#04052:34
#04057:63
#0405b:0053
#03856:0000000000630000
#04156:53
#04152:0063
#04956:23
#04952:0000002300000000
#0495b:13
#06957:0000000000000053
#06956:23
#06952:0000002300000000
#0695b:13
#06752:0000002300000000
#06756:00230000000000000000000000000000
#0675b:13
#06652:3600000000000053
#06658:46
#07156:5464
#07152:34
#0705b:0023000000000000000000000000000000000000000000000000000000000000
#07059:00000053000000000000000000000000
#07057:0000000000000000000000230000000000000000000000000000000000000000
#06857:23
#0685b:0000002300000000
#06852:13
#07952:63
#07956:0023000000000000
#07958:16
#08056:63
#08057:0053
#08257:00000053
#08255:0016160000000000
#0895a:0014
#08952:14
#09052:14
#0905a:0014
#0875b:13
#08752:66
#08552:13
#08558:56
#08858:56
#08852:13
#02452:0000001300000000
#0255b:0000001300000000
#02652:0000001300000000
#0325b:0000001300000000
#03252:2300006300000000
#0285a:14
#03352:0000001300000000
#0335b:2300005300000000
#08155:1616001616001616
#06156:0000001800000000
#06152:0000000000000018
#06256:0000001800000000
#05257:53
#05256:0063
#05252:33
#04457:0053
#04456:63
#0445b:43
#03152:0063
#0315b:00000053
#001380:12
#0013c0:00000022
#001341:00001222
#002361:12
#002321:00000022
#0033c1:1222
#003381:00320000
#003360:0012
#003320:00000032
#004360:22
#0043c1:12
#004371:0022
#004371:0000000000000012
#005321:00220000
#006371:12
#0063c1:00220000
#007371:12
#007321:00220000
#0083b1:1300003300003300
#008391:0033000033000033
#008371:0000330000330000
#009371:3300003300003333
#0093b1:0033000033330000
#009391:00330000
#0103b1:23
#0123b1:13230000
#012371:0053000000000000
#013371:13
#0133b1:00230000
#013361:0013
#013321:00000023
#019361:0015
#019321:0000000000340000
#019371:00000034
#020321:24
#0233b1:0013
#023371:0000000000230000
#023321:00000013
#023361:0000000000000023
#0243b1:1300003300000000
#024371:0000330000230000
#025321:1300003300000000
#025361:0000330000230000
#026371:1300003300000000
#0263b1:0000330000230000
#027351:1323000000000000
#0273b1:00000000130000230000000000000000
#031321:0013
#031361:0000000000230000
#0313b1:00000013
#031371:0000000000000023
#032321:13
#032361:00230000
#032321:0000001300000000
#032361:0000000000230000
#0333b1:13
#033371:00230000
#0333b1:0000001300000000
#033371:0000000000230000
#0343b1:13230000
#034381:0000001323000000
#034350:0000000013330000
#034320:00000000000000000000005300002300
#034381:0000000000130000
#0343b1:00000000000000000000005300002300
#0363b1:13
#036371:00230000
#036320:00130000
#036360:0023
#036370:0000000000000013
#0373b0:00230000
#037360:0013
#037340:0000000000330033
#037320:00000033
#038360:23
#038360:0000000000130000
#039320:23
#040370:13
#0403b0:00230000
#0403b0:0013
#040370:00000023
#041360:13
#041320:00230000
#041320:0013
#041360:00000023
#042360:1424000000000000
#042360:0000142400000000
#042360:0000000014240000
#042360:0000000000001424
#044360:13
#044320:00230000
#044370:0013
#0443b0:00000023
#045320:13230000
#045360:0053000000000000
#045371:00132300
#0453b1:0000005300000000
#045320:00001323
#045360:0000000000530000
#0473b0:0000000000000013
#048370:00530000000000000000000000000000
#0483b0:00230000
#0483b0:0000001300000000
#048370:0023
#049360:13
#049320:00230000
#049320:0000001300000000
#049360:0023
#050370:13
#0503b0:00230000
#0503b0:0000001300000000
#050370:0023
#050360:0000000000000013
#051320:0053000000000000000000000000000023000000000000000000000000000000
#051340:00000053000000000000000000000000
#051360:0000000000000000000000530000000000000000000000000000000000000000
#052370:13
#0523b0:00230000
#052360:0013
#052320:00000023
#0533b0:13230000
#053370:0053000000000000
#053361:00132300
#053321:0000005300000000
#0533b0:00001323
#053370:0000000000530000
#055320:0000000000000013
#056360:00530000000000000000000000000000
#056320:00230000
#057370:13230000
#0573b0:0033000000000000
#058360:13230000
#058320:0033000000000000
#059320:1400002400000000
#0593a1:0000001400000024
#059360:0000000000000014
#059320:00000000000000000000000000000054
#060320:0024000000000000
#060360:0000001400000000
#0603a0:00000000000000540000240000000000
#061320:0000001400240000
#0613a0:0000000000000014
#0623a0:0024000000000000
#062320:0000001400240000
#063360:14
#063320:00230000
#063360:0014
#0633b0:00000023
#064320:13230000
#064360:0053000000000000
#064371:00132300
#0643b1:0000005300000000
#064320:00001323
#064360:0000000000530000
#066320:0000000000000013
#067360:00530000000000000000000000000000
#067320:00230000
#067320:0000001300000000
#067360:0023
#068370:13
#0683b0:00230000
#0683b0:0000001300000000
#068370:0023
#069360:13
#069320:00230000
#069320:0000001300000000
#069360:0023
#069370:0000000000000013
#0703b0:0053000000000000000000000000000023000000000000000000000000000000
#070390:00000053000000000000000000000000
#070370:0000000000000000000000530000000000000000000000000000000000000000
#071360:14
#0713b0:00230000
#071360:0014
#071320:00000023
#0723b0:13230000
#072370:0053000000000000
#072361:00132300
#072321:0000005300000000
#0723b0:00001323
#072370:0000000000530000
#074320:0000000000000013
#075360:00530000000000000000000000000000
#075320:00230000
#076370:13
#0763b0:00230000
#077360:13230000
#077320:0033000000000000
#077320:0000001300000023
#077360:0000000000530000
#079320:13230000
#079360:0053000000000000
#080360:13
#080320:00230000
#080370:0013
#0803b0:00000023
#082370:00001333
#0823b0:0000000000330000
#0833b0:00000053
#084370:00000023
#083361:0000000000000013
#084361:00230000
#084321:0013
#085321:23
#085380:16
#0873b0:23
#086321:00001323
#086361:0000000000330000
#087321:16
#088321:23
#088380:16
#0893b0:23
#088321:00001323
#088361:0000000000330000
#089360:00142400
#089360:00000014
#090360:24
#090360:00142400
#090320:0000005400000000
#090360:00000014
#0903a0:0000000000000054
#091360:24
#091360:00140000
#091380:0000005400000000
#091320:0026
#091360:00000014
#091340:0000000000000054
#092380:26
#092360:00140000
#092380:0000005600000000
#092320:0028
