This file was generated by Ched 2.7.0.0.
#TITLE ""
#ARTIST ""
#DESIGNER ""
#DIFFICULTY 0
#PLAYLEVEL
#SONGID ""
#WAVE ""
#WAVEOFFSET 0
#JACKET ""
#REQUEST "ticks_per_beat 480"
#00002: 4
#BPM01: 190
#00008: 01
#TIL00: ""
#HISPEED 00
#MEASUREHS 00
#00318:14
#00312:0014
#0041a:14
#00714:14
#0071a:0014
#0101a:14000014
#01012:00140000
#01016:0014
#02012:00140000
#02018:0014
#0211a:1414
#0211a:0014
#02114:00140000
#02212:14
#02218:00140000
#02214:0014
#0221a:00000014
#02314:14
#02318:00140000
#02312:0014
#0361a:1414
#0361f:11
#03714:1414
#03818:1414
#03912:1414
#0401a:14
#04014:00140000
#04018:0014
#04012:00000014
#0411a:14
#04114:00140000
#04118:0014
#04112:00000014
#04412:00160000
#04418:2600000016000014
#04414:00000014
#0441f:21
#04514:1400000000000014
#04512:0016
#04518:00160014
#04618:1416
#04612:00160016
#05018:14
#0501a:0014
#05019:00140014
#05118:14
#05119:00140000
#05218:00160014
#05214:0000000000000014
#05212:2616
#05318:1400000016000014
#05314:00000014
#05312:00160000
#05414:14
#05418:00160016
#05412:0016
#0561a:14
#05612:00140000
#05618:0014
#05614:00000014
#05712:00140000
#05718:0014
#0571a:14
#05814:14
#05812:0014
#05813:00140014
#06115:0000000000000016
#06118:26
#06318:00160014
#06314:0000000000000014
#06312:2616
#06418:1400000016000014
#06414:00000014
#06412:00160000
#06514:14
#06518:00260026
#06512:0026
#06712:00140000
#0671a:0014
#06714:00000014
#06718:24
#06812:00140000
#0681a:0014
#06818:24
#06914:14
#06912:0014
#06913:00140014
#07014:14
#07013:00140000
#07112:00160000
#07118:2600000016000014
#07114:00000014
#07214:1400000000000014
#07212:0016
#07218:00160014
#07318:1426
#07312:00260026
#0751a:00140000
#07512:0014
#07518:00000014
#07514:24
#0761a:00140000
#07612:0014
#07614:24
#07718:14
#0771a:0014
#07719:00140014
#07414:00001414
#07418:2600000000140014
#08918:14
#08914:0014
#09018:14
#09014:0014
#08712:14
#08715:00000014
#0851a:14
#08517:00000014
#09118:16
#09112:0016
#09218:1600000000260000
#09212:00002626
#0121a:1414
#01214:00140000
#01210:41
#01312:1414
#01318:00140000
#01612:14
#01614:0014
#01618:00140000
#0171a:14
#01718:0014
#01714:00140000
#0281a:00140000
#02814:1414
#02810:41
#02912:1414
#02912:0014
#02918:00140000
#0301a:14
#03014:00140000
#03018:0014
#03012:00000014
#03118:14
#03114:00140000
#0311a:0014
#07912:1414
#07918:00140000
#07910:41
#0801a:1414
#08014:00140000
#0831a:14
#08318:0014
#08314:00140000
#08412:14
#08414:0014
#08418:00140000
#04812:14
#0481a:00140000
#04814:0014
#04818:00000014
#0491a:00140000
#04914:0014
#04912:14
#01112:0034342400000000
#06612:26
#06610:41
#02619:00340000
#02618:0034
#02718:34
#02719:00340000
#03414:00003434
#03413:00340000
#05910:41
#04710:41
#01152:0000001400000000
#02058:14
#03554:14
#05058:24
#0505a:0024
#05059:00540054
#05158:24
#05159:00540000
#05854:24
#05852:0024
#05853:00640064
#06155:0000000000000026
#06158:66
#06954:24
#06952:0024
#06953:00640064
#07054:24
#07053:00640000
#07758:24
#0775a:0024
#07759:00540054
#07858:0014
#08752:64
#08755:00000024
#0855a:54
#08557:00000024
#04356:14
#07458:16
#001390:1424
#002330:1424
#005330:1424
#006390:1424
#008320:14
#009320:0028
#011340:14
#011320:0034342400000000
#0143a0:14000034
#014380:0000003400000000
#015380:0034000000000000
#0153a0:0024
#018320:14
#018340:00240000
#018380:0014
#0183a0:00000024
#019320:14
#019340:00240000
#0193a0:0014
#019380:00000034
#020380:24
#0243a0:14
#024390:00340000
#024380:0024
#025320:14
#025330:00340000
#025340:0024
#0263a0:14
#026390:00340000
#026380:00003434
#027380:34
#027390:00340000
#0273a0:0024
#032320:14
#032330:00340000
#032340:0024
#0333a0:14
#033390:00340000
#033380:0024
#034320:14
#034330:00340000
#034340:00003434
#035340:24
#042360:14000034
#043360:24
#047380:1626
#050380:14
#050390:00340034
#0503a0:0034
#051380:34
#051390:00340000
#0513a0:0024
#055320:1626
#058340:14
#058330:00340034
#058320:0034
#059340:34
#060340:24
#061380:16
#061350:0000000000000036
#062380:00000026
#066320:1626
#069340:14
#069330:00340034
#069320:0034
#070340:34
#070330:00340000
#070320:0024
#077380:14
#077390:00340034
#0773a0:0034
#078380:3424
#081320:14000034
#081340:0000003400000000
#082340:0034000000000000
#082320:0024
#0853a0:14
#085370:00000054
#0863a0:0024
#087320:14
#087350:00000054
#088320:0024
