This file was generated by Ched 2.6.4.0.
#TITLE ""
#ARTIST ""
#DESIGNER ""
#DIFFICULTY 0
#PLAYLEVEL
#SONGID ""
#WAVE ""
#WAVEOFFSET 0
#JACKET ""
#REQUEST "ticks_per_beat 480"
#00002: 4
#BPM01: 204
#00008: 01
#TIL00: ""
#HISPEED 00
#MEASUREHS 00
#0021a:14
#06612:1616
#06610:41
#0011a:14
#00312:14
#0171a:14
#01710:41
#01814:14
#0191a:14
#02212:14
#02014:14
#02118:14
#02318:14
#02412:14
#02518:14
#02618:14
#0331a:14
#03412:14
#0351a:14
#03612:14
#03718:14
#03814:14
#06518:2616
#0651f:21
#06718:1616
#00412:14
#00518:14
#00510:41
#00618:14
#00714:14
#00814:14
#0101a:14
#0091a:14
#01214:14
#01114:14
#01418:14
#01318:14
#01512:14
#0151a:14
#06812:1616
#07412:0016
#07418:16
#07518:16
#07512:0016
#07612:0016
#07618:16
#07312:0016
#07318:26
#08018:16
#06313:14
#06319:14
#02712:14
#02812:14
#0291a:14
#02910:41
#0301a:14
#03114:14
#03214:14
#03913:14
#03919:14
#04118:14
#04110:41
#04212:14
#0431a:14
#04414:14
#04518:14
#04612:14
#0471a:14
#04814:14
#0811a:14
#08214:14
#08318:14
#08412:14
#0851a:14
#08614:14
#0491f:11
#07918:26
#07912:0026
#07710:41
#0493a0:14
#0503a0:24
#051320:14
#052320:24
#053380:14
#054380:24
#055340:14
#056340:24
#0573a0:14
#0583a0:24
#059320:14
#060320:24
#061380:14
#062380:24
#069380:1626
#070320:1626
#071380:1626
#072320:1626
#077380:1626
#078320:1626
#087380:1400340000340034
#088380:0034000034003434
#089380:00000024
