This file was generated by Ched 2.6.4.0.
#TITLE ""
#ARTIST ""
#DESIGNER ""
#DIFFICULTY 0
#PLAYLEVEL
#SONGID ""
#WAVE ""
#WAVEOFFSET 0
#JACKET ""
#REQUEST "ticks_per_beat 480"
#00002: 4
#BPM01: 204
#00008: 01
#TIL00: ""
#HISPEED 00
#MEASUREHS 00
#00016:00000014
#01615:0016
#00118:0013
#0011b:23
#00112:23
#0031b:13
#00312:13
#00318:0013
#00315:0000001300001300
#00215:00000013
#00218:0013
#00418:0013
#00416:00000014
#00515:0013
#00512:23
#0051b:23
#00510:41
#00712:13
#0071b:13
#00715:0013
#00718:0000001300001300
#00618:00000013
#00615:0013
#00815:0013
#00816:00000014
#0091b:23130000
#00918:00001313
#00912:2313
#0101b:13130000
#01018:00001313
#01015:0000001300000000
#01012:00000013
#01112:23130000
#01115:00001313
#0111b:2313
#01212:13130000
#01215:00001313
#01218:0000001300000000
#0121b:00000013
#01318:00130013
#0131b:2313
#01312:0000000000130000
#01315:0000000000000013
#01415:00130013
#01412:2313
#0141b:0000000000130000
#01418:0000000000000013
#01718:0013000000000013
#01715:00130013
#0171b:2300000000130000
#01712:2300001300000000
#01710:41
#01812:0013000000130000
#01818:0000130000000013
#01815:0000001300000000
#01915:0013000000000013
#01918:00130013
#01912:1300000000130000
#0191b:1300001300000000
#0201b:0013000000130000
#02015:0000130000001313
#02018:00000000000013000000000000130000
#02118:0013000000000000
#02112:23130000
#0211b:2300000000130013
#02115:0000001300001300
#02215:0013000000130000
#0221b:00130000
#02212:0000001300000000
#02218:0000000000000013
#02315:0013000000000000
#0231b:13130000
#02312:1300000000130013
#02318:0000001300001300
#02418:00001300001300130000000013000000
#02415:0000131313000013
#0241b:0000000000130000
#0261a:14
#02612:1400000000130000
#0261b:00131300
#02618:0000001300000000
#02615:00131300
#02712:00130000
#02718:00130013
#02715:0000000013000013
#0251b:23130000
#02515:00130000
#02512:2314
#02516:0000000000000014
#0251a:00000000000000000000001400000000
#02818:13
#02812:13
#02815:00130000
#0281b:00130000
#0291b:0013
#02918:0000000000130000
#02915:00000013
#02912:0000000000000013
#02910:41
#03012:0013
#03015:1300000000130013
#03018:0000001300001300
#0301b:13
#03118:1300000013000013
#0311b:0000000000130000
#03115:00000013
#03112:1313
#03212:1324
#0321b:13
#03216:00002424
#0321a:00000024
#06915:0014000013000000
#0691a:0014000000000000
#06917:14
#0691b:0013
#06918:0000000000130000
#06912:2400000000130000
#07017:0014000000000000
#07012:0014000013000000
#07015:1400000000130000
#07018:0013
#0701b:0000000000130000
#0701a:24
#07114:0014000000000000
#07118:0014000000001300
#0711b:0000000013000013
#07112:2400000000130013
#07115:00000013
#0711a:24
#03712:13000013
#03717:0000000000000013
#04015:0016
#04112:2300001300001300
#04115:0013000000000000
#04118:0000130000130013
#0411b:23
#04110:41
#04218:0000001300000000
#04212:00130000
#04215:0013000000000013
#0421b:0000000000130000
#04312:13
#0431b:1300001300001300
#04318:0013000000000000
#04315:0000130000130013
#04515:0013001300001300
#0451b:2300130000000013
#04518:0000000000130000
#04512:23
#04612:0000001300000000
#0461b:00130000
#04615:0013000000130000
#04618:0000000000000013
#04718:0013001300001300
#04715:0000000000130000
#04712:1300130000000013
#0471b:13
#06415:0016
#06516:0000140000140000
#06518:26000026
#06512:0000002600000000
#0651f:21
#06616:00140000
#06615:0016
#06614:00000018
#06610:41
#06716:0000140000140000
#06712:26000026
#06718:0000002600000000
#06816:00140000
#06815:0016
#06814:00000018
#07215:00130000
#07218:00231426
#07212:00000016
#07214:0024
#0731a:00140000
#07312:0000000000140000
#07315:2600002600002600
#07412:00140000
#07414:0016
#07416:00000018
#07512:00140000
#0751a:0000000000140000
#07515:2600002600002600
#0761a:00140000
#07616:0016
#07612:00000018
#07717:0014000000000000
#07712:0014000013000000
#07715:1400000000130000
#07718:0013
#0771b:0000000000130000
#0771a:24
#07710:41
#07815:0014000013000000
#0781a:0014000000000000
#07817:14
#0781b:0013
#07818:0000000000130000
#07812:2400000000130000
#08015:00000016
#0801a:24
#08012:24
#0871b:13
#08714:0013000000000014
#0871a:0013000000000014
#08719:00130000
#08718:0000001300140000
#08715:13
#08713:00130000
#08712:0000001300140000
#08818:0014001300000000
#08812:0014000000000000
#08815:00000000000000130000000000000000
#03315:1300000000000013
#03312:00130013
#03318:13130013
#0331b:0000000000000013
#03415:00130000
#03412:0000001300001300
#0341b:0000001300000000
#03418:0013000000000000
#03518:1300000000000013
#0351b:00130013
#03515:13130013
#03512:0000000000000013
#0361b:0000001300001300
#03618:00130000
#03612:0000001300000000
#03615:0013000000000000
#0381b:13000013
#03816:0000000000000013
#03912:13
#0391b:23
#0481b:0000001300000013
#04812:00130000
#04818:00001300000000000013001300000000
#04815:0000000013131300
#05815:0000000013000013
#05812:0000001300000000
#05818:0000000000130000
#0581b:00000013
#05918:1300160000000013
#05912:23160000
#05912:23
#05915:00000013
#0591b:00000013
#06012:13
#06018:0013000000001300
#0601b:0000001300000000
#06015:0000001300000013
#05715:13000013
#05712:00160000
#05718:00160000
#0571b:23000013
#06118:13160013
#06112:23160013
#0631b:13
#06312:13
#08112:2300000000130000
#08118:00131313
#0811b:2300001300000000
#08115:0013000000000013
#0821b:0013000000130000
#08215:0000130000000013
#08212:13000013
#08218:00000000000013000000000000130000
#0831b:1300000000130000
#08312:1300001300000000
#08315:00131313
#08318:0013000000000013
#08515:0013000013001300
#08518:00130000
#0851b:2300000000130013
#08512:2300001300000000
#08618:1300130000000013
#08615:0013000000130000
#08612:0000001300000000
#08418:0000130013000013
#0841b:1300000000130000
#08412:0013000000001300
#08415:00000000000013000013000000000000
#04415:00000000000013000000000000130000
#0441b:00130013
#04412:0000000000130000
#04418:0013000000000013
#04918:14
#04919:00120000
#04913:00120000
#04915:00000013
#0491b:00000013
#0491f:11
#04912:24
#05012:13
#05015:0013000000000000
#05018:00130000
#0501b:0000000000000013
#0511a:00140000
#05118:00000013
#05112:00000013
#05115:1200000000000013
#05114:00140000
#0511b:22
#0521b:0013000000130000
#05218:00000013
#05215:0000000000000013
#05212:0000001300000000
#05318:00000013
#05312:00000013
#05314:14
#05315:00120000
#0531b:00120000
#0531a:24
#0541b:13
#05418:0013000000000000
#05415:00130000
#05412:0000000000000013
#05515:00000013
#0551b:00000013
#05518:0000140000000013
#05512:00140000
#05519:12
#05513:22
#05612:0013000000130000
#0561b:0000001300000000
#05615:00000013
#05618:0000000000000013
#06218:0000000013000013
#0621b:0000001300000000
#06215:0000000000130000
#06212:00000013
#01512:23
#0151b:23
#07912:24
#0791a:0024
#07916:00240024
#00158:0043
#00258:0043
#00358:0043
#00458:0043
#00555:0033
#00655:0033
#00755:0033
#00855:0033
#01552:13
#0155b:13
#02756:14
#02752:00130000
#0275b:0013
#02758:00530000
#02755:0063
#02552:13
#0255b:00130000
#02858:5313
#02852:5313
#02855:00630000
#0285b:00630000
#02358:0000005300000000
#02352:0000000000000053
#02155:0000006300000000
#0215b:0000000000000063
#0195b:0000006300000000
#01955:0000000000000063
#01752:0000005300000000
#01758:0000000000000053
#03256:00004434
#03252:53
#0325b:63
#03055:63
#0305b:63
#03158:53
#03152:53
#06955:0024000063004300
#0695a:0024000000000000
#06957:54340000
#06952:5400340000230000
#0695b:00006343
#06958:0000000000230000
#07057:0024000000000000
#07052:0024000053003300
#07055:6400440000230000
#0705a:64440000
#07058:00005333
#0705b:0000000000230000
#07154:0024000000000000
#07152:5400340000000023
#07158:0024000000005300
#0715a:64440000
#0715b:0000000000000023
#07155:00000063
#03752:13000013
#04555:0000006300000000
#0455b:0000000000000063
#04758:0000005300000000
#04752:0000000000000053
#06558:16000016
#06552:0000001600000000
#06656:00140000
#06655:0016
#06654:00000018
#06856:00140000
#06855:0016
#06854:00000018
#06752:16000016
#06758:0000001600000000
#07452:00140000
#07454:0016
#07456:00000018
#07355:1600001600001600
#0765a:00140000
#07656:0016
#07652:00000018
#07555:1600001600001600
#07757:0024000000000000
#07752:0024000053003300
#07755:6400440000230000
#07758:00005333
#0775b:0000000000230000
#0775a:64440000
#07855:0024000063004300
#0785a:0024000000000000
#07857:54340000
#0785b:00006343
#07858:0000000000230000
#07852:5400340000230000
#0795a:0044
#07952:34
#03355:6300000000000063
#03352:00230000
#03358:13530000
#03452:00000013
#0345b:0000006300000000
#03558:5300000000000053
#0355b:00230000
#03555:13630000
#0365b:00000013
#03652:0000005300000000
#0385b:13000013
#03952:13
#05958:23661300
#05952:23661300
#05952:23
#06058:0053000000000000
#0605b:0000006300000000
#06055:0000006300000000
#05755:23
#05752:00661300
#05758:00661300
#0575b:23
#06158:23560000
#06152:23560000
#0615b:0013
#06155:0013
#0635b:13
#06352:13
#0815b:0000006300000000
#08155:0000000000000063
#08158:0023
#08252:23
#0855b:0000000000000063
#08552:0000005300000000
#08555:0023
#08658:23
#02952:00140000
#0295a:00140000
#04158:0000000000000053
#04152:0000005300000000
#04355:0000000000000063
#0435b:0000006300000000
#04958:5414
#04959:00220000
#04953:00220000
#04952:5414
#0515a:00640000
#05155:2200000012000063
#0515b:2212
#05154:00640000
#0525b:0063000000000000
#05558:0000540000000053
#05552:00540000
#05559:2212
#05553:2212
#05652:0053000000000000
#08352:0000005300000000
#08358:0000000000000053
#08355:0023
#0845b:23
#05354:6414
#05355:00220000
#0535b:00220000
#0535a:6414
#07255:13
#07258:13
#009350:0000000000000013
#010320:0023000000000000
#011380:0000000000000013
#0123b0:0023000000000000
#013320:13
#013350:00230000
#0143b0:13
#014380:00230000
#017320:0000001300000000
#017350:0000000000230000
#017380:0000000000000013
#0183b0:0023000000000000
#0183b0:0013
#018380:0000000000230000
#018320:00000013
#018350:0000000000000023
#0193b0:0000001300000000
#019380:0000000000230000
#019350:0000000000000013
#020320:0023000000000000
#020320:0013
#020350:0000000000230000
#021350:0000001300000000
#021320:0000000000230000
#0213b0:0000000000000013
#022380:0023000000000000
#022380:0013
#0223b0:0000000000230000
#022350:00000013
#022320:0000000000000023
#023380:0000001300000000
#0233b0:0000000000230000
#023320:0000000000000013
#024350:0023000000000000
#0263a0:00000014
#027360:24
#027380:00130000
#0273b0:0023
#027351:0013
#027321:00000023
#028381:13000000000000532300000000000000
#0283b1:00000053330000000000000000000000
#028320:13000000000000532300000000000000
#028350:00000053330000000000000000000000
#029320:14240000
#0293a1:14240000
#030351:13
#030321:00230000
#0303b0:13
#030380:00230000
#031380:13
#0313b0:00230000
#031321:13
#031351:00230000
#0323b1:13
#032381:00230000
#032320:13
#032350:00230000
#033350:1323
#033320:00330000
#033381:00130000
#0333b1:0023
#033351:0000000000000013
#034321:0023000000000000
#0343b1:0000001300000000
#034371:00000023
#035381:1323
#0353b1:00330000
#035350:00130000
#035320:0023
#035380:0000000000000013
#0363b0:0023000000000000
#036320:0000001300000000
#036360:00000023
#0373b0:13
#037370:00230000
#037321:00130000
#037361:0023
#0373b0:0013
#037370:00000023
#038360:13
#038320:00230000
#038371:00130000
#0383b1:0023
#038360:0013
#038320:00000023
#041320:0000001300000000
#041350:0000000000230000
#041380:0000000000000013
#0423b0:0023000000000000
#042350:0013
#042320:0000000000230000
#0423b0:00000013
#042380:0000000000000023
#0433b0:0000001300000000
#043380:0000000000230000
#043350:0000000000000013
#044320:0023000000000000
#044380:0013
#0443b0:0000000000230000
#045350:0000001300000000
#045320:0000000000230000
#0453b0:0000000000000013
#046380:0023000000000000
#046380:0013
#0463b0:0000000000230000
#046320:00000013
#046350:0000000000000023
#047380:0000001300000000
#0473b0:0000000000230000
#047320:0000000000000013
#048350:0023000000000000
#049320:1424
#049330:00520000
#049381:1424
#049391:00520000
#0503b1:0000001323000000
#050350:0000000013230000
#050381:0000000000132300
#050320:0000000000001323
#0513b0:1222
#0513a0:00540000
#051351:1222
#051341:00540000
#051351:0000000000000013
#052321:00532300000000000000000000000000
#0523b0:0013000000000000
#052380:00000000005323000000000000000000
#0533a0:1424
#0533b0:00520000
#053341:1424
#053351:00520000
#054321:0000001323000000
#054380:0000000013230000
#054351:0000000000132300
#0543b0:0000000000001323
#055330:1222
#055320:00540000
#055391:1222
#055381:00540000
#055381:0000000000000013
#0563b1:00532300000000000000000000000000
#056320:0013000000000000
#056350:00000000005323000000000000000000
#057350:13
#057320:00562300
#0573b1:13
#057381:00562300
#0583b1:1323000000000000
#058350:0013230000000000
#058381:0000132300000000
#059321:13562300
#059380:13562300
#060380:00001300000000000053230000000000
#0603b0:00000000005333000000000000000000
#060351:0000001300000000
#060321:00000000000000000053230000000000
#061381:13560000
#0613b1:0023
#061320:13560000
#061350:0023
#062320:1323000000000000
#062381:0013230000000000
#062350:0000132300000000
#065350:13
#065320:00230000
#065380:0000001300000000
#0653b0:0000000000230000
#065350:00000013
#066320:23
#066381:13
#0663b1:00230000
#067381:13
#0673b1:00230000
#067351:0000001300000000
#067321:0000000000230000
#067381:00000013
#0683b1:23
#068350:13
#068320:00230000
#069370:14240000
#0693a0:0054000000000000
#069321:14240000
#069351:0054000000000000
#069351:00001323
#069321:0000000000530000
#0693b0:00001323
#069380:0000000000530000
#070350:14240000
#070320:0054000000000000
#0703a1:14240000
#070371:0054000000000000
#070381:00001323
#0703b1:0000000000530000
#070320:00001323
#070350:0000000000530000
#071320:14240000
#071340:0054000000000000
#0713a1:14240000
#071381:0054000000000000
#071381:00000013
#0713b1:0000000000000053
#072381:23
#071350:00000013
#071320:0000000000000053
#072350:23
#073320:13
#073350:00230000
#0733b0:0000001300000000
#073380:0000000000230000
#073320:00000013
#074350:23
#0743b1:13
#074381:00230000
#0753b1:13
#075381:00230000
#075321:0000001300000000
#075351:0000000000230000
#0753b1:00000013
#076381:23
#076320:13
#076350:00230000
#077350:14240000
#077320:0054000000000000
#0773a1:14240000
#077371:0054000000000000
#077381:00001323
#0773b1:0000000000530000
#077320:00001323
#077350:0000000000530000
#078370:14240000
#0783a0:0054000000000000
#078321:14240000
#078351:0054000000000000
#078351:00001323
#078321:0000000000530000
#0783b0:00001323
#078380:0000000000530000
#079360:14
#0793a0:00240000
#079360:0014
#079320:00000024
#0813b0:0000001300230000
#081380:0053
#081350:0000000000000013
#082320:53
#082350:0023000000000000
#082320:0013
#082350:0000000000230000
#083320:0000001300230000
#083350:0053
#083380:0000000000000013
#0843b0:53
#084380:0023000000000000
#085320:0000001300230000
#085350:0053
#0853b0:0000000000000013
#086380:53
#0863b0:0023000000000000
#0863b0:0013
#086380:0000000000230000
#086320:00000013
#086350:0000000000000023
#088380:0000000013230000
#088351:0000000000132300
#088380:0000000000001323
#088321:0000000000000016
#089321:00000022
