This file was generated by Ched 2.6.4.0.
#TITLE ""
#ARTIST ""
#DESIGNER ""
#DIFFICULTY 0
#PLAYLEVEL
#SONGID ""
#WAVE ""
#WAVEOFFSET 0
#JACKET ""
#REQUEST "ticks_per_beat 480"
#00002: 4
#BPM01: 204
#00008: 01
#TIL00: ""
#HISPEED 00
#MEASUREHS 00
#0001b:00000013
#01616:0014
#00115:0013
#0011b:23
#00112:23
#0031b:13000013
#00312:13
#00315:0013
#00318:0000001300000000
#00215:00000013
#00218:0013
#00418:0013
#00412:00000013
#00915:00130000
#00918:00001313
#00912:23
#0091b:23
#01018:00000013
#01015:0000001300000000
#01312:00130000
#01315:00001313
#01318:0000000000130013
#0131b:23
#01815:0000001300000000
#01818:00130000
#01912:13
#0191b:0000001300000000
#01918:0013000000000013
#01915:00130013
#02112:0013000000000013
#02118:00130013
#02115:0000001300000000
#0211b:23
#0221b:00130000
#02212:0000001300000000
#02415:00001313
#02412:00130000
#0241b:0000001300000000
#02418:0000000000130013
#02612:00130000
#02618:1300001300000000
#0261b:0000000000130000
#02615:0013
#02718:00130000
#0271b:00000013
#02715:0000000013000013
#0251b:00130000
#02512:23
#01712:0000001300000000
#01715:0013000000000013
#01718:00130013
#0171b:23
#01710:41
#0291b:0013
#02912:00000013
#02910:41
#03015:0000000000000013
#0301b:13
#03012:0000001300000000
#0311b:0013
#03115:00000013
#03118:1300000000000013
#03112:0013
#03215:13
#0321a:0024
#03212:00000024
#04312:13130000
#04318:0013001300000013
#04315:00000013
#04715:13
#0471b:0013001300000013
#04712:00130013
#06416:0014
#06514:0000140000140000
#06518:2600002600002600
#0651f:21
#0661a:00140014
#06612:0014
#06614:14
#06610:41
#0711b:00001313
#07112:2400000000130000
#0711a:24
#07212:00130013
#0721b:0013
#07218:00230023
#07215:0023
#08715:13
#0871b:0013000000000000
#08712:00130000
#08718:0000001300000014
#08714:0000000000140000
#08814:0014000000000000
#08818:0000001313000000
#08815:00000000000000130000000000000000
#08812:0000000000130000
#0881b:00000013
#02312:13
#0231b:0013000000000013
#02315:00130013
#02318:0000001300000000
#03312:0013
#0331b:0013
#03315:00130013
#03318:1300000000000013
#06316:14
#08315:13
#08312:00130013
#0831b:0013000000000013
#08318:0000001300000000
#05012:13130000
#05018:0013001300000000
#05015:00001313
#0501b:0000000000130013
#0491a:14
#0491f:11
#00518:0013
#00512:23
#0051b:23
#00510:41
#00712:13000013
#0071b:13
#00718:0013
#00715:0000001300000000
#00618:00000013
#00615:0013
#00815:0013
#0081b:00000013
#01118:00130000
#01115:00001313
#01112:23
#0111b:23
#01215:00000013
#01218:0000001300000000
#0141b:00130000
#01418:00001313
#01415:0000000000130013
#01412:23
#02018:0000001300000000
#02015:00130000
#0281b:13
#02818:00130000
#03712:00130000
#03718:00130013
#0371b:0013
#03715:1300000013000013
#0381b:00130000
#03815:00130013
#03812:0013
#03818:1300000013000013
#04016:0014
#04212:0000001300000000
#04218:00000000130000000000331333000000
#0421b:0013
#04115:0013001300000013
#0411b:23130000
#04118:00000013
#04110:41
#0441b:0000001300000000
#04415:00000000130000000000331333000000
#04412:0013
#04615:0000001300000000
#0461b:00000000130000000000331333000000
#04618:0013
#04512:0013001300000013
#0451b:00130013
#04518:23
#04818:0000001300000000
#04812:00000000130000000000331333000000
#04815:0013
#05312:14
#05115:0000000000000013
#0511b:0000000000000013
#05112:14
#05218:0013000000000000
#05212:0013000000001300
#05215:0000001300000000
#0521b:0000001300001300
#0541b:13130000
#05415:0013001300000000
#05418:00001313
#05412:0000000000130013
#05518:0000000000000013
#05512:0000000000000013
#0551a:14
#05615:0013000000000000
#0561b:0013000000001300
#05618:0000001300000000
#05612:0000001300001300
#05812:1313
#05818:0013000000130000
#05815:00130013
#0581b:0000001300000013
#05918:0000000000000013
#05912:14
#06015:1300001300000000
#06012:0013000000001300
#06018:0013000000000000
#0601b:0000001300001300
#0621b:1313
#06215:0013000000130000
#06218:00130013
#06212:0000001300000013
#06718:0000140000140000
#06712:2600002600002600
#06812:00140014
#0681a:0014
#06818:14
#0691a:14000014
#06912:0014
#07012:14000014
#0701a:0014
#07314:00140000
#07313:0000000000140000
#07318:26
#07317:0000002600000000
#07316:00000026
#07412:14
#07418:00140014
#07414:0014
#07518:00140000
#07519:0000000000140000
#07512:26
#07513:0000002600000000
#07514:00000026
#0761a:14
#07614:00140014
#07618:0014
#0771a:14
#07714:0014
#07718:0014000000001400
#07710:41
#07818:0014
#07814:0014000000001400
#07812:14
#08016:00000014
#0801a:24
#08012:24
#08212:0000001300000000
#0821b:00130000
#0811b:00130013
#08112:0013000000000013
#08115:0000001300000000
#08118:23
#0851b:00130013
#08515:0013000000000013
#08512:0000001300000000
#08518:23
#08615:0000001300000000
#08618:00130000
#0841b:0000001300000000
#08412:00130000
#06118:14
#06112:24
#0571a:14
#03418:00130000
#03412:0000001300000000
#03415:0013000000000000
#03512:0013
#0351b:0013
#03518:13000013
#03515:0000130000000013
#03615:00130000
#0361b:0000001300000000
#03618:0013000000000000
#03915:13
#01512:23
#0151b:23
#07918:26
#07912:0026
#02752:13
#02758:00130000
#02755:0013
#02552:13
#0255b:00130000
#02155:0000006300000000
#02152:0000000000000053
#01752:0000005300000000
#01755:0000000000000063
#0305b:63
#03052:0000005300000000
#03158:53
#03255:63
#0325a:0014
#03252:00000014
#07152:54
#0715a:64
#07158:00140000
#07154:00140000
#0715b:00000063
#06558:1600001600001600
#0665a:00140014
#06652:0014
#06356:14
#02955:00160000
#04956:0014
#0495a:64
#00155:0013
#00258:0013
#00458:0013
#00355:0013
#00558:0013
#00655:0013
#00855:0013
#00758:0013
#0195b:0000006300000000
#01958:0000000000000053
#02358:0000005300000000
#0235b:0000000000000063
#0285b:6313
#02858:00530000
#04155:0000006300000063
#0425b:0063
#04258:00000000000000000000002300000000
#04358:0000005300000053
#04455:00000000000000000000002300000000
#04452:0053
#04552:0000005300000053
#0465b:00000000000000000000002300000000
#04658:0053
#0475b:0000006300000063
#04852:00000000000000000000002300000000
#04855:0063
#05352:54
#05356:0014
#05756:0014
#0575a:24
#06852:00140014
#0685a:0014
#06752:1600001600001600
#0695a:64
#06956:00140000
#07052:54
#07056:00140000
#07358:16
#07357:0000001600000000
#07356:00000016
#07458:00140014
#07454:0014
#07654:00140014
#07658:0014
#07552:16
#07553:0000001600000000
#07554:00000016
#0775a:64440000
#07758:0024000000000000
#07852:54340000
#07854:0024000000000000
#07958:16
#07952:0016
#08555:0000000000000063
#08552:0000005300000000
#08155:0000006300000000
#08152:0000000000000053
#08358:0000005300000000
#0835b:0000000000000063
#05152:54
#05156:0014
#0555a:64
#05556:0014
#06158:54
#0615a:0014
#06154:0014
#06152:54
#05952:24
#05956:0014
#07258:13
#03358:13
#03858:13
#03452:0000005300000000
#0365b:0000006300000000
#03558:13
#03755:13
#03955:13
#009350:0000000000000013
#010320:0023000000000000
#011380:0000000000000013
#0123b0:0023000000000000
#017320:0000001300000000
#017350:0000000000230000
#017350:0000000000000013
#018320:0023000000000000
#0183b0:0013
#0183a0:0000000000330000
#018390:00000033
#018380:0000000000000023
#0193b0:0000001300000000
#019380:0000000000230000
#019380:0000000000000013
#0203b0:0023000000000000
#020320:0013
#020330:0000000000330000
#020340:00000033
#020350:0000000000000023
#021350:0000001300000000
#021320:0000000000230000
#021320:0000000000000013
#022350:0023000000000000
#022380:0013
#022390:0000000000330000
#0223a0:00000033
#0223b0:0000000000000023
#023380:0000001300000000
#0233b0:0000000000230000
#0233b0:0000000000000013
#024380:0023000000000000
#025350:0000000013000023
#025320:00000000000000000000003300000000
#026320:00000013
#027320:23
#0283b0:1323
#028380:00330000
#029350:16260000
#0303b0:13
#030380:00230000
#030320:0000001300000000
#030350:0000000000230000
#031380:13
#0313b0:00230000
#032350:13
#032320:00230000
#034320:0000001300000000
#034360:00000023
#0363b0:0000001300000000
#036370:00000023
#041350:0000001300000000
#041320:0000000000230000
#041350:0000000000000013
#042320:0023000000000000
#0423b0:0000000013000023
#042380:00000000000000000000335333000000
#043380:0000001300000000
#0433b0:0000000000230000
#043380:0000000000000013
#0443b0:0023000000000000
#044320:0000000013000023
#044350:00000000000000000000335333000000
#045320:0000001300000000
#045350:0000000000230000
#045320:0000000000000013
#046350:0023000000000000
#046380:0000000013000023
#0463b0:00000000000000000000335333000000
#0473b0:0000001300000000
#047380:0000000000230000
#0473b0:0000000000000013
#048380:0023000000000000
#048350:0000000013000023
#048320:00000000000000000000335333000000
#0493a0:14
#049360:0024
#051320:14
#051360:0024
#053320:14
#053360:0024
#0553a0:14
#055360:0024
#0573a0:14
#057360:0024
#059320:14
#059360:0024
#061380:14
#0613a0:0024
#061321:14
#061341:0024
#0693a1:14
#069361:00240000
#070321:14
#070361:00240000
#071321:14
#071341:00240000
#0713a0:14
#071380:00240000
#0713b0:00000013
#072380:23
#0773a0:14240000
#077380:0054000000000000
#078320:14240000
#078340:0054000000000000
#081350:0000001300000000
#081320:0000000000230000
#081320:0000000000000013
#082350:0023000000000000
#0823b0:0000000013000023
#082380:0000000000333300
#083380:0000001300000000
#0833b0:0000000000230000
#0833b0:0000000000000013
#084380:0023000000000000
#084320:0000000013000023
#084350:0000000000333300
#085320:0000001300000000
#085350:0000000000230000
#085350:0000000000000013
#086320:0023000000000000
#086380:0000000013000023
#0863b0:0000000000333300
#088350:0000000000000016
#089370:00000022
