This file was generated by Ched 2.6.4.0.
#TITLE ""
#ARTIST ""
#DESIGNER ""
#DIFFICULTY 0
#PLAYLEVEL
#SONGID ""
#WAVE ""
#WAVEOFFSET 0
#JACKET ""
#REQUEST "ticks_per_beat 480"
#00002: 4
#BPM01: 204
#00008: 01
#TIL00: ""
#HISPEED 00
#MEASUREHS 00
#00014:00000018
#01614:0018
#00112:241c
#0011a:24
#00317:1300001300000000
#00312:130000131c000000
#00316:00000013
#0031b:00000013
#00216:00000013
#00212:001c
#0021b:00000013
#00412:001c
#00414:00000018
#0091b:23130013
#00917:0013
#00916:0000130000000013
#00914:0013001300000000
#00912:2313
#01017:1313
#01012:13
#0101b:00130013
#01316:13000013
#01318:00130000
#01312:0013000013000000
#0131b:2300001300001300
#01319:0000000000130000
#01314:0000000000000013
#01412:2300001300001300
#01414:0000000000130000
#01419:0000000000000013
#01417:13000013
#01415:00130000
#0141b:0013000013000000
#01715:0013130000000000
#01718:00000013000000000000000000000000
#01712:2300000000130013
#0171b:2300001300001300
#01716:0000001300001300
#01717:0000000000000013
#01710:41
#0181b:00130000
#01812:0000000000131300
#01816:0013000013000013
#01817:0000001300000000
#0191b:1300000000130013
#01912:1300001300001300
#01918:0013130000000000
#01915:00000013000000000000000000000000
#01917:0000001300001300
#01916:0000000000000013
#02516:00130000
#0251b:13
#02517:0013000013000000
#02512:2300000000000013
#03012:1313
#03014:0000000000130000
#0301b:0013000000001300
#03017:1313
#03018:0000000000000013
#03016:0013000000001300
#03015:0000001300000000
#0311b:1313
#03112:0013000000001300
#03116:13001414
#03117:0013000000000000
#03114:0000000000130000
#03119:0000000000000013
#03212:13002428
#0321b:13
#03216:0028
#0321a:00000024
#03317:13000013
#03312:1400001300001313
#03316:00131300
#0331b:0000000000000013
#03319:0000000000130000
#0341b:00131300
#03416:13130014
#03417:0013001300000000
#03412:0000001300130000
#03414:00000000000000000000001300000000
#03712:1400140000140014
#03716:1400001400141400
#0371a:0014001414000014
#03912:14
#0391a:24
#04014:0018
#0431b:1300130000130000
#04312:1300001300001313
#04319:00000013
#04315:0013000000000000
#04318:00000013000000000000000000000000
#04317:0000001300000013
#04316:0013
#04712:1313000013001300
#0471b:1300001300130013
#04717:00000013
#04716:0000001300000013
#04718:00130000
#04715:00000013000000000000000000000000
#04917:12000013
#04912:22000013
#0491f:11
#0501b:13131313
#05016:13000013
#05012:00131300
#05014:0013000000130013
#05017:0000001300000000
#05112:12000013
#0511b:00000013
#05116:0000000000000013
#05117:22
#0571b:00000013
#05715:00000013
#05717:13
#05712:23
#0601b:1313000000001300
#06012:13000013
#06016:0000000000140014
#06112:24000013
#06118:00000013
#06116:24
#06312:13
#0631b:13
#06414:0018
#08312:13131313
#0831b:1300001300130013
#08315:00000013000000000000000016000000
#08316:0000001300000013
#08318:0013160000000000
#08317:0013
#0871b:1300130000130000
#08712:0013001300000013
#08717:0013001300000000
#08716:1300130000140014
#0881b:0013000000000000
#08816:0014000000000000
#08818:0000001300000016
#08815:00000000000000130000000000000000
#08812:0000000000000016
#0231b:13130000
#02312:1300001300000013
#02318:0013000000000000
#02315:00000013000000000000000000000000
#02317:0000001300000013
#02319:00000013
#02314:00000013
#02316:0000000000130000
#00512:241c
#0051a:24
#00510:41
#00716:1300001300000000
#0071b:1300001300000000
#00712:00001c13
#00717:00000013
#00617:00000013
#00612:00001c13
#00812:001c
#00814:00000018
#01216:1313
#0121b:13
#01212:00130013
#01117:0000130000000013
#01112:23130013
#01116:0013
#01119:0013001300000000
#0111b:2313
#02012:00000000130000000000000000130000
#0201b:0000000000131300
#02018:0000000000000013
#02017:0013000013000000
#02016:0000001300000000
#02015:00000000000000000000000000000013
#02115:0013000000000000
#02112:23130000
#02118:00000013000000000000000000000000
#02116:0000001300000013
#0211b:2300001300000013
#02114:00000013
#02119:00000013
#02117:0000000000130000
#02216:0000000000131300
#02212:0013000013000013
#02217:00130000
#0221b:0000001300000000
#02416:00130000
#0241a:00000000001300000000130000000000
#02414:0000001300001300
#02418:00000000000000130000000000001300
#0241b:0013000013000000
#02412:0013
#02419:00000013
#02413:0000000000130000
#02415:0000000000000013
#02616:13
#0261b:13
#02612:00130000
#02617:00130000
#02618:00000013
#02615:00000013
#0271b:00130013
#02716:00130000
#02712:0013
#02717:0000000000000013
#02817:13
#02816:00130000
#02812:13
#0281b:0013
#03516:13000013
#0351b:0000001300001313
#03517:00131300
#0351a:14
#03512:0000000000000013
#03514:0000000000130000
#03612:00131300
#03617:13130000
#03616:0013001300001400
#0361b:0000001300130000
#03619:00000000000000000000001300000000
#0381a:1400140000140014
#03816:1400001400141400
#03812:0014001414000014
#04114:00000013
#0411b:2300001300001313
#04118:0013000000000000
#04112:2300130000130000
#04115:00000013000000000000000000000000
#04116:0000001300000013
#04117:0013
#04110:41
#0421b:0013000000130013
#04212:13130000
#04216:0000001300000000
#04217:00001313
#04412:0013000000130000
#0441b:13130000
#04417:0000001300000000
#04416:00001313
#04415:0000000000000013
#04419:00000000000000000000000000130000
#04418:00000000000000000000000000000013
#0451b:2313000013001300
#04516:00000013
#04512:2300001300130013
#04517:0000001300000013
#04515:00130000
#04518:00000013000000000000000000000000
#0461b:0013000013001300
#04616:1300130000130013
#04612:0000001300000000
#04812:0013000013001300
#04817:13130000
#0481b:00000000000013000013000013000000
#04816:0000000000000014
#04815:0000000000130000
#04818:00000000000000000000001300000000
#05214:13
#05219:00130000
#05216:0000000000140014
#0521b:0000001300001300
#05212:00000013
#05217:0013
#05316:00000013
#0531b:00000013
#05318:12
#05312:00220000
#05412:13131313
#05417:13000013
#0541b:00131300
#05419:0013000000130013
#05416:0000001300000000
#0551b:00000013
#05512:12000013
#05517:0000000000000013
#05518:00220000
#05619:13
#05614:00130000
#05616:0000000013140014
#05612:0000001300001300
#0561b:00000013
#07214:00000000000000000014000000000000
#07218:0000001300140016
#07212:00000000230000000000001400160000
#07215:00000000000013000000000026000016
#0721b:00230000
#0721a:0024
#0791a:0000000024140014
#07916:14001400140014000014000024000014
#07912:24000000000000000000001400140000
#0711b:00001313
#07116:0024000013001300
#07117:0000000000130013
#07112:2c002c0000130013
#07114:00280028000000000000000000000000
#02916:0013
#02912:00000013
#02915:0000000000000013
#02917:00000013
#02919:0000000000130000
#0291b:0013
#02910:41
#08115:0013000000001600
#0811b:23131313
#08112:2300161300130013
#08117:0000001300000013
#08118:00000013000000000000000000000000
#08116:0013
#0821b:1300000000130000
#08215:00000000000000000000000016000013
#08217:0013000013000000
#08216:13
#08212:00000000160013000000000000130000
#08218:0000000000000013
#08412:1300000000130013
#08415:00000016
#08417:13000000000000000000001300000000
#08416:0013000013000000
#0841b:00000000000013000013000013000000
#08418:00160000
#08512:23001313
#08515:0013160000001600
#08519:0000001300000000
#0851b:2300130000000013
#08516:0000000000130013
#08518:00000013000000000000000000000000
#0861b:0013000000130000
#08618:0000000000001613
#08612:13000000160013000000000000000013
#08617:1313
#08615:00000000000000000000000000130000
#05816:00001313
#05817:0013000000000013
#0581b:13130013
#05812:0000001300130013
#06217:00001313
#06216:0013000000000013
#06212:13130013
#0621b:0000001300130013
#05915:0000000000000013
#05912:13000013
#05918:00000013
#05917:23
#06812:14140000
#06816:1400001500000000
#0681a:0014000000000000
#06818:0014
#06819:0000000000150000
#07414:0000001500000000
#07418:0000000000160000
#0741a:00140000
#07412:1416
#07417:0014000000000000
#07416:18
#07612:1800140000160000
#07617:0000001500000000
#0761a:14
#07615:0014000000000000
#07618:0016
#06612:0014000000150000
#06615:0000001500000000
#06614:0014
#0661a:14140000
#06616:14
#06610:41
#06918:00160000000000000000000000000000
#06914:0000001a000000000000000000000000
#06912:000000002c0000001c1a181614000000
#0691a:24
#06916:0028000000000000
#07012:2416281a2c0000001c00000000000000
#07014:0000000000000000001a000000000000
#07018:00000000000000000000001600000000
#0701a:00000014
#07016:0000000000180000
#07712:2416281a2c0000001c00000000000000
#07714:0000000000000000001a000000000000
#07718:00000000000000000000001600000000
#0771a:00000014
#07716:0000000000180000
#07710:41
#07818:00160000000000000000000000000000
#07814:0000001a000000000000000000000000
#07812:000000002c0000001c1a181614000000
#0781a:24
#07816:0028000000000000
#08014:00000018
#0801a:24
#08012:24
#06516:0000140000140000
#06512:2600002600002600
#0651f:21
#06716:0000140000140000
#06718:2600002600002600
#07312:26001c26001c2600
#07315:0000003400000000000000000000003400000000000000000000003400000000
#07316:00340000000000340000000000340000
#07318:0034000000000000000000000034000000000000000000000034000000000000
#07512:00001c00001c0000
#07518:2600002600002600
#07517:0000003400000000000000000000003400000000000000000000003400000000
#07516:00340000000000340000000000340000
#07514:0034000000000000000000000034000000000000000000000034000000000000
#01512:2c
#00152:004c
#00252:004c
#00352:004c
#00452:004c
#01552:1c
#02952:001c0000
#03256:0048
#03252:53000038
#0325b:63
#03258:00430000
#03255:00330000
#03756:5400002400241400
#03752:34540000
#0375a:0024000064000000
#0795a:0044
#07952:34
#07956:54640000
#0635b:13
#06352:13
#00552:003c
#00652:003c
#00752:003c
#00852:003c
#00956:0000000000000063
#00952:0053
#01052:23
#0105b:00000013
#01157:0000000000000053
#0115b:0063
#0125b:23
#01252:00000013
#0135b:0000002300001300
#01352:0023000000000000
#01356:63
#01358:00530000
#01457:53
#01455:00630000
#0145b:0023000000000000
#01452:0000002300001300
#02552:33
#0255b:63430000
#02556:00330000
#02557:0023000000000000
#0265b:13
#02658:00000023
#02655:00000023
#0275b:43630000
#02756:00330033
#02757:0043
#02752:3353
#02857:53
#02856:00630000
#02852:3333
#0285b:00434300
#0305b:0053000000000000
#03056:0053000000000000
#03052:23
#03057:23
#03152:0063000000000000
#03157:0063000000000000
#0315b:23
#03156:23
#03357:53
#03352:3400000000000053
#03456:23000044
#03457:0000005300000000
#0345b:0023
#03556:63
#0355b:0000000000000063
#0355a:44
#03657:23
#03656:0000006300003400
#03652:0023
#03856:6400002400241400
#0385a:44640000
#03852:0024000054000000
#03952:34
#0395a:44
#0175b:0000006300000000
#01757:0000000000000053
#01952:0000005300000000
#01956:0000000000000063
#0215b:0000000000000063
#02156:0000006300000000
#02352:0000000000000053
#02357:0000005300000000
#0415b:0000006300000000
#04157:0023
#04156:0000000000000063
#04252:23
#04352:0000005300000000
#04356:0023
#04357:0000000000000053
#0445b:23
#04557:0000005300000000
#0455b:0023
#04552:0000000000000053
#04656:23
#04756:0000006300000000
#04752:0023
#0475b:0000000000000063
#04857:23
#0525b:0000006300000000
#05257:0023
#05652:0000005300000000
#05656:0023
#07452:54345638
#07458:0000000046260000
#07457:0024000000000000
#07454:0000002500000000
#0745a:00640000
#07256:43
#0725b:43
#08152:0000360000000053
#08157:0000005300000000
#0815b:0023
#08155:00000036
#08256:23
#08252:00360000
#08255:00000046
#08556:0000000000000063
#08555:00360046
#08652:23360000
#08658:00000046
#06856:5400342500000000
#0685a:0024000000000000
#06852:00543600
#06858:0054
#06859:0000000000250000
#06854:00000038
#07657:0000002500000000
#07652:0000540036260000
#0765a:64440000
#07655:0024000000000000
#07658:0066
#07656:00000048
#08852:0000000000000066
#08858:0000000000000056
#0715b:00000063
#07157:0000000000000023
#07156:00000063
#07152:00001c0000000023
#06654:00006448
#06658:0046
#06656:64440000
#06652:0024000000250000
#06655:0000002500000000
#0665a:00640000
#06952:004c0034
#0705a:00000044
#07052:003c0000
#0775a:00000044
#07752:003c0000
#07852:004c0034
#0835b:0000000000000063
#08356:0000006300000000
#08352:0023
#08358:00460000
#08355:00000046
#08457:23
#08458:00460000
#08455:00000036
#06156:54
#06152:54
#06155:0013
#06158:0013
#06552:3600003600003600
#06758:4600004600004600
#07352:3600003600003600
#07558:4600004600004600
#05152:52
#05157:52
#0515b:0012
#05156:0012
#05752:53
#05757:53
#05755:0013
#0575a:0013
#04957:52
#04952:52
#0495b:0012
#04956:0012
#05552:52
#0555b:0012
#05558:00520000
#05555:0012
#05355:0012
#05352:00520000
#05358:52
#0535b:0012
#05952:53
#05957:53
#05955:0013
#0595a:0013
#009320:0013
#009360:00000023
#009360:0000000000000013
#010320:53
#010360:0023000000000000
#010320:0000001300000000
#010360:00000023
#0113b0:0013
#011370:00000023
#011370:0000000000000013
#0123b0:53
#012370:0023000000000000
#0123b0:0000001300000000
#012370:00000023
#013360:13
#013320:0053000000000000
#013350:00230000
#013381:00130000
#0133b1:0000005300000000
#013371:0023
#014371:13
#0143b1:0053000000000000
#014381:00230000
#014350:00130000
#014320:0000005300000000
#014360:0023
#0173b0:0000001300000000
#017370:0000000000230000
#017370:0000000000000013
#0183b0:0023000000000000
#018360:00130000
#018320:0000002300000000
#0183b0:0000000013000023
#018370:0000000000333300
#019320:0000001300000000
#019360:0000000000230000
#019360:0000000000000013
#020320:0023000000000000
#020370:00130000
#0203b0:0000002300000000
#020320:0013
#020360:0000000000332300
#021360:0000001300000000
#021320:0000000000230000
#0213b0:0000000000000013
#022370:0023000000000000
#022320:00130000
#022360:0000002300000000
#022370:0000000013000023
#0223b0:0000000000333300
#023370:0000001300000000
#0233b0:0000000000230000
#023320:0000000000000013
#024360:0023000000000000
#0253b0:13230000
#025370:0053000000000000
#025320:0013
#025360:00000000000000000000002300000000
#0253b1:00000000000000000000001300000000
#025371:0000000000000023
#0263b1:0000001300230000
#026381:0033
#026320:0000001300230000
#026350:0033
#026380:00000013
#0273b0:23
#026351:00000013
#027321:23
#0273b1:00130000
#027371:0000005323000000
#027320:0013
#027360:0000000000532300
#028370:13
#0283b0:0053230000000000
#028361:00130000
#028321:0000005323000000
#029321:1c2c0000
#030371:13230000
#0303b1:0053000000000000
#030320:13230000
#030360:0053000000000000
#031360:13230000
#031320:0053000000000000
#0313b1:13230000
#031371:0053000000000000
#0323b1:13
#032351:000053230000000000000000
#032320:13
#032380:000053230000000000000000
#033370:1300003300000000
#0333b0:00332300
#033320:0000000000000013
#034360:53
#034320:0023000000000000
#034370:0000001300230000
#0343b0:0053
#035360:1300003300000000
#035320:00332300
#0353b0:0000000000000013
#036370:53
#0363b0:0023000000000000
#036360:0000001300230000
#036320:0053
#037360:14240000
#0373a0:0054000000000000
#037321:00142400
#037361:0000005400000000
#0373a0:00001424
#037360:0000000000540000
#038360:14240000
#038320:0054000000000000
#0383a1:00142400
#038361:0000005400000000
#038320:00001424
#038360:0000000000540000
#0413b0:0000001300230000
#041370:0053
#041360:0000000000000013
#042320:53
#042360:0023000000000000
#042370:00130000
#0423b0:0000002300000000
#042320:00001333
#042360:0000000000330023
#043320:0000001300230000
#043360:0053
#043370:0000000000000013
#0443b0:53
#044370:0023000000000000
#044360:00130000
#044320:0000002300000000
#0443b0:00001323
#044370:0000000000330000
#045370:0000001300230000
#0453b0:0053
#045320:0000000000000013
#046360:53
#046320:0023000000000000
#0463b0:00130000
#046370:0000002300000000
#046360:00001333
#046320:0000000000330023
#047360:0000001300230000
#047320:0053
#0473b0:0000000000000013
#048370:53
#0483b0:0023000000000000
#048320:00130000
#048360:0000002300000000
#049370:12
#0493b0:000000000000000000000000000000000000000000000000000000000000000000000000000000000000000000000000000000000000000000000000000000000000000000000000000000000000000000000000000000000000000000000000000000000000000000000000000000000000000000000000000000000000000000000000000000000000000000000000000000000000000000000000000000000000000000000000000000000000000000000000000000000000000000000000000000000000000000000000000000000000000000000000000000000000000000000000000000000000000000000000000000000000000000000000000000000000000000000000000000000000000000000000000000000000000000000000000000000000000000000000000000000000000000000000000000000000000000000000000000000000000000000000000000000000000000000000000000000000000000000000000000000000000000000000000000000000000000000000000000000000000000000000000000000000000000000000000000000000000000000000000000000000000000000000000000000000000000000000000000000000000000000000000000000000000000000000000000000000000000000000000000000000000000000000000000000000000000000000000000000000000000000000000000000000000000000000000000000000000000000000000000000000000000000000000000000000000000000000000000000000000000000000000000000000000000000000000000000000000000000000000000000000000000000000000000000000000000000000000000000000000000000000000000000000000000000000000000000000000000000000000000000000000000000000000000000000000000000000000000000000000000000000000000000000000000000000000000000000000000000052000000000000000000000000000000000000000000000000000000000000000000000000000000000000000000000000000000000000000000000000000000000000000000000000000000000000000000000000000000000000000000000000000000000000000000000000000000000000000000000000000000000000000000000000000000000000000000000000000000000000000000000000000000000000000000000000000000000000000000000000000000000000000000000000000000000000000000000000000000000000000000000000000000000000000000000000000000000000000000000000220000000000000000000000000000000000000000000000000000000000000000000000000000000000000000000000000000000000000000000000000000000000000000000000000000000000000000000000000000000000000000000000000000000000000000000000000000000000000000000000000000000000000000000000000000000000000000000000000000000000000000000000000000000000000000000000000000000000000000000000000000000000000000000000000000000000000000000000000000000000000000000000000000000000000000000000000000000000000000000000000000000000000000000000000000000000000000000000000000000000000000000000000000000000000000000000000000000000000000000000000000000000000000000000000000000000000000000000000000000000000000000000000000000000000000000000000000000000000000000000000000000000000000000000000000000000000000000000000000000000000000000000000000000000000000000000000000000000000000000000000000000000000000000000000000000000000000000000000000000000000000000000000000000000000000000000000000000000000000000000000000000000000000000000000000000000000000000000000000000000000000000000000000000000000000000000000000000000000000000000000000000000000000000000000000000000000000000000000000000000000000000000000000000000000000000000000000000000000000000000000000000000000000000000000000000000000000000000000000000000000000000000000000000000000000000000000000000000000000000000000000000000000000000000000000000000000000000000000000000000000000000000000000000000000000000000000000000000000000000000000000000000000000000000000000000000000000000000000000000000000000000000000000000000000000000000000000000000000000000000000000000000000000000000000000000000000000000000000000000000000000000000000000000000000000000000000000000000000000000000000000000000000000000000000000000000000000000000000000000000000000000000000000000000000000000000000000000000000000000000000000000000000000000000000000000000000000000000000000000000000000000000000000000000000000000000000000000000000000000000
#0493a0:0000005400000000
#049321:12
#049361:000000000000000000000000000000000000000000000000000000000000000000000000000000000000000000000000000000000000000000000000000000000000000000000000000000000000000000000000000000000000000000000000000000000000000000000000000000000000000000000000000000000000000000000000000000000000000000000000000000000000000000000000000000000000000000000000000000000000000000000000000000000000000000000000000000000000000000000000000000000000000000000000000000000000000000000000000000000000000000000000000000000000000000000000000000000000000000000000000000000000000000000000000000000000000000000000000000000000000000000000000000000000000000000000000000000000000000000000000000000000000000000000000000000000000000000000000000000000000000000000000000000000000000000000000000000000000000000000000000000000000000000000000000000000000000000000000000000000000000000000000000000000000000000000000000000000000000000000000000000000000000000000000000000000000000000000000000000000000000000000000000000000000000000000000000000000000000000000000000000000000000000000000000000000000000000000000000000000000000000000000000000000000000000000000000000000000000000000000000000000000000000000000000000000000000000000000000000000000000000000000000000000000000000000000000000000000000000000000000000000000000000000000000000000000000000000000000000000000000000000000000000000000000000000000000000000000000000000000000000000000000000000000000000000000000000000000000000000000000000052000000000000000000000000000000000000000000000000000000000000000000000000000000000000000000000000000000000000000000000000000000000000000000000000000000000000000000000000000000000000000000000000000000000000000000000000000000000000000000000000000000000000000000000000000000000000000000000000000000000000000000000000000000000000000000000000000000000000000000000000000000000000000000000000000000000000000000000000000000000000000000000000000000000000000000000000000000000000000000000000220000000000000000000000000000000000000000000000000000000000000000000000000000000000000000000000000000000000000000000000000000000000000000000000000000000000000000000000000000000000000000000000000000000000000000000000000000000000000000000000000000000000000000000000000000000000000000000000000000000000000000000000000000000000000000000000000000000000000000000000000000000000000000000000000000000000000000000000000000000000000000000000000000000000000000000000000000000000000000000000000000000000000000000000000000000000000000000000000000000000000000000000000000000000000000000000000000000000000000000000000000000000000000000000000000000000000000000000000000000000000000000000000000000000000000000000000000000000000000000000000000000000000000000000000000000000000000000000000000000000000000000000000000000000000000000000000000000000000000000000000000000000000000000000000000000000000000000000000000000000000000000000000000000000000000000000000000000000000000000000000000000000000000000000000000000000000000000000000000000000000000000000000000000000000000000000000000000000000000000000000000000000000000000000000000000000000000000000000000000000000000000000000000000000000000000000000000000000000000000000000000000000000000000000000000000000000000000000000000000000000000000000000000000000000000000000000000000000000000000000000000000000000000000000000000000000000000000000000000000000000000000000000000000000000000000000000000000000000000000000000000000000000000000000000000000000000000000000000000000000000000000000000000000000000000000000000000000000000000000000000000000000000000000000000000000000000000000000000000000000000000000000000000000000000000000000000000000000000000000000000000000000000000000000000000000000000000000000000000000000000000000000000000000000000000000000000000000000000000000000000000000000000000000000000000000000000000000000000000000000000000000000000000000000000000000000000000000000000000000000
#049351:0000005400000000
#051371:12
#0513b1:000000000000000000000000000000000000000000000000000000000000000000000000000000000000000000000000000000000000000000000000000000000000000000000000000000000000000000000000000000000000000000000000000000000000000000000000000000000000000000000000000000000000000000000000000000000000000000000000000000000000000000000000000000000000000000000000000000000000000000000000000000000000000000000000000000000000000000000000000000000000000000000000000000000000000000000000000000000000000000000000000000000000000000000000000000000000000000000000000000000000000000000000000000000000000000000000000000000000000000000000000000000000000000000000000000000000000000000000000000000000000000000000000000000000000000000000000000000000000000000000000000000000000000000000000000000000000000000000000000000000000000000000000000000000000000000000000000000000000000000000000000000000000000000000000000000000000000000000000000000000000000000000000000000000000000000000000000000000000000000000000000000000000000000000000000000000000000000000000000000000000000000000000000000000000000000000000000000000000000000000000000000000000000000000000000000000000000000000000000000000000000000000000000000000000000000000000000000000000000000000000000000000000000000000000000000000000000000000000000000000000000000000000000000000000000000000000000000000000000000000000000000000000000000000000000000000000000000000000000000000000000000000000000000000000000000000000000000000000000000052000000000000000000000000000000000000000000000000000000000000000000000000000000000000000000000000000000000000000000000000000000000000000000000000000000000000000000000000000000000000000000000000000000000000000000000000000000000000000000000000000000000000000000000000000000000000000000000000000000000000000000000000000000000000000000000000000000000000000000000000000000000000000000000000000000000000000000000000000000000000000000000000000000000000000000000000000000000000000000000000220000000000000000000000000000000000000000000000000000000000000000000000000000000000000000000000000000000000000000000000000000000000000000000000000000000000000000000000000000000000000000000000000000000000000000000000000000000000000000000000000000000000000000000000000000000000000000000000000000000000000000000000000000000000000000000000000000000000000000000000000000000000000000000000000000000000000000000000000000000000000000000000000000000000000000000000000000000000000000000000000000000000000000000000000000000000000000000000000000000000000000000000000000000000000000000000000000000000000000000000000000000000000000000000000000000000000000000000000000000000000000000000000000000000000000000000000000000000000000000000000000000000000000000000000000000000000000000000000000000000000000000000000000000000000000000000000000000000000000000000000000000000000000000000000000000000000000000000000000000000000000000000000000000000000000000000000000000000000000000000000000000000000000000000000000000000000000000000000000000000000000000000000000000000000000000000000000000000000000000000000000000000000000000000000000000000000000000000000000000000000000000000000000000000000000000000000000000000000000000000000000000000000000000000000000000000000000000000000000000000000000000000000000000000000000000000000000000000000000000000000000000000000000000000000000000000000000000000000000000000000000000000000000000000000000000000000000000000000000000000000000000000000000000000000000000000000000000000000000000000000000000000000000000000000000000000000000000000000000000000000000000000000000000000000000000000000000000000000000000000000000000000000000000000000000000000000000000000000000000000000000000000000000000000000000000000000000000000000000000000000000000000000000000000000000000000000000000000000000000000000000000000000000000000000000000000000000000000000000000000000000000000000000000000000000000000000000000000000000000000
#0513a1:0000005400000000
#051320:12
#051360:000000000000000000000000000000000000000000000000000000000000000000000000000000000000000000000000000000000000000000000000000000000000000000000000000000000000000000000000000000000000000000000000000000000000000000000000000000000000000000000000000000000000000000000000000000000000000000000000000000000000000000000000000000000000000000000000000000000000000000000000000000000000000000000000000000000000000000000000000000000000000000000000000000000000000000000000000000000000000000000000000000000000000000000000000000000000000000000000000000000000000000000000000000000000000000000000000000000000000000000000000000000000000000000000000000000000000000000000000000000000000000000000000000000000000000000000000000000000000000000000000000000000000000000000000000000000000000000000000000000000000000000000000000000000000000000000000000000000000000000000000000000000000000000000000000000000000000000000000000000000000000000000000000000000000000000000000000000000000000000000000000000000000000000000000000000000000000000000000000000000000000000000000000000000000000000000000000000000000000000000000000000000000000000000000000000000000000000000000000000000000000000000000000000000000000000000000000000000000000000000000000000000000000000000000000000000000000000000000000000000000000000000000000000000000000000000000000000000000000000000000000000000000000000000000000000000000000000000000000000000000000000000000000000000000000000000000000000000000000000052000000000000000000000000000000000000000000000000000000000000000000000000000000000000000000000000000000000000000000000000000000000000000000000000000000000000000000000000000000000000000000000000000000000000000000000000000000000000000000000000000000000000000000000000000000000000000000000000000000000000000000000000000000000000000000000000000000000000000000000000000000000000000000000000000000000000000000000000000000000000000000000000000000000000000000000000000000000000000000000000220000000000000000000000000000000000000000000000000000000000000000000000000000000000000000000000000000000000000000000000000000000000000000000000000000000000000000000000000000000000000000000000000000000000000000000000000000000000000000000000000000000000000000000000000000000000000000000000000000000000000000000000000000000000000000000000000000000000000000000000000000000000000000000000000000000000000000000000000000000000000000000000000000000000000000000000000000000000000000000000000000000000000000000000000000000000000000000000000000000000000000000000000000000000000000000000000000000000000000000000000000000000000000000000000000000000000000000000000000000000000000000000000000000000000000000000000000000000000000000000000000000000000000000000000000000000000000000000000000000000000000000000000000000000000000000000000000000000000000000000000000000000000000000000000000000000000000000000000000000000000000000000000000000000000000000000000000000000000000000000000000000000000000000000000000000000000000000000000000000000000000000000000000000000000000000000000000000000000000000000000000000000000000000000000000000000000000000000000000000000000000000000000000000000000000000000000000000000000000000000000000000000000000000000000000000000000000000000000000000000000000000000000000000000000000000000000000000000000000000000000000000000000000000000000000000000000000000000000000000000000000000000000000000000000000000000000000000000000000000000000000000000000000000000000000000000000000000000000000000000000000000000000000000000000000000000000000000000000000000000000000000000000000000000000000000000000000000000000000000000000000000000000000000000000000000000000000000000000000000000000000000000000000000000000000000000000000000000000000000000000000000000000000000000000000000000000000000000000000000000000000000000000000000000000000000000000000000000000000000000000000000000000000000000000000000000000000000000000000000000
#051350:0000005400000000
#0513b0:0000000000000013
#052390:33
#052370:0023000000000000
#052321:0013000000000000
#052341:00330000
#052361:0000002300000000
#0523b0:0000001300230000
#052370:0053
#053380:12
#0533b0:000000000000000000000000000000000000000000000000000000000000000000000000000000000000000000000000000000000000000000000000000000000000000000000000000000000000000000000000000000000000000000000000000000000000000000000000000000000000000000000000000000000000000000000000000000000000000000000000000000000000000000000000000000000000000000000000000000000000000000000000000000000000000000000000000000000000000000000000000000000000000000000000000000000000000000000000000000000000000000000000000000000000000000000000000000000000000000000000000000000000000000000000000000000000000000000000000000000000000000000000000000000000000000000000000000000000000000000000000000000000000000000000000000000000000000000000000000000000000000000000000000000000000000000000000000000000000000000000000000000000000000000000000000000000000000000000000000000000000000000052000000000000000000000000000000000000000000000000000000000000000000000000000000000000000000000000000000000000000000000000220000000000000000000000000000000000000000000000000000000000000000000000000000000000000000000000000000000000000000000000000000000000000000000000000000000000000000000000000000000000000000000000000000000000000000000000000000000000000000000000000000000000000000000000000000000000000000000000000000000000000000000000000000000000000000000000000000000000000000000000000000000000000000000000000000000000000000000000000000000000000000000000000000000000000000000000000000000000000000000000000000000000000000000000000000000000000000000000000000000000000000000000000000000000000000000000000000000000000000000000000000000000000000000000000000000000000000000000000000000000000000000000000000000000000000000000000000000000000000000000000000000000000000000000000000000000000000000000000000000000000000000000000000000000000000000000000000000000000000000000000000000000000000000000000000000000000000000000000000000000000000000000000000000000000000000000000000000000000000000000
#0533a0:00000000000000540000000000000000
#053321:00120000
#053351:000000000000000000000000000000000000000000000000000000000000000000000000000000000000000000000000000000000000000000000000000000000000000000000000000000000000000000000000000000000000000000000000000000000000000000000000000000000000000000000000000000000000000000000000000000000000000000000000000000000000000000000000000000000000000000000000000000000000000000000000000000000000000000000000000000000000000000000000000000000000000000000000000000000000000000000000000000000000000000000000000000000000000000000000000000000000000000000000000000000000000000000000000000000000000000000000000000000000000000000000000000000000000000000000000000000000000000000000000000000000000000000000000000000000000000000000000000000000000000000000000000000000000000000000000000000000000000000000000000000000000000000000000000000000000000000000000000000000000000000000000000000000000000000000000000000000000000000000000000000000000000000000000000000000000000000000000000000000000000000000000000000000000000000000000000000000000000000000000000000000000000000000000000000000000000000000000000000000000000000000000000000000000000000000000000000000000000000000000000000000000000000000000000000000000000000000000000000000000000000000000000000000000000000000000000000000000000000000000000000000000000000000000000000000000000000000000000000000000000000000000000000000000000000000000000000000000000000000000000000000000000000000000000000000000000000000000000000000000000000000000000000000000000000000000000000000000000000000000000000000000000000000000000000000000000000000000000000000000000000000000000000000000000000000000000000000000000000000000000000000000000000000000000000000000000000000000000000000000000000052000000000000000000000000000000000000000000000000000000000000000000000000000000000000000000000000000000000000000000000000000000000000000000000000000000000000000000000000000000000000000000000000000000000000000000000000000000000000000000000000220000000000000000000000000000000000000000000000000000000000000000000000000000000000000000000000000000000000000000000000000000000000000000000000000000000000000000000000000000000000000000000000000000000000000000000000000000000000000000000000000000000000000000000000000000000000000000000000000000000000000000000000000000000000000000000000000000000000000000000000000000000000000000000000000000000000000000000000000000000000000000000000000000000000000000000000000000000000000000000000000000000000000000000000000000000000000000000000000000000000000000000000000000000000000000000000000000000000000000000000000000000000000000000000000000000000000000000000000000000000000000000000000000000000000000000000000000000000000000000000000000000000000000000000000000000000000000000000000000000000000000000000000000000000000000000000000000000000000000000000000000000000000000000000000000000000000000000000000000000000000000000000000000000000000000000000000000000000000000000000000000000000000000000000000000000000000000000000000000000000000000000000000000000000000000000000000000000000000000000000000000000000000000000000000000000000000000000000000000000000000000000000000000000000000000000000000000000000000000000000000000000000000000000000000000000000000000000000000000000000000000000000000000000000000000000000000000000000000000000000000000000000000000000000000000000000000000000000000000000000000000000000000000000000000000000000000000000000000000000000000000000000000000000000000000000000000000000000000000000000000000000000000000000000000000000000000000000000000000000000000000000000000000000000000000000000000000000000000000000000000000000000000000000000000000000000000000000000000000000000000000000000000000000000000000000000000000000000000000000000000000000000000000000000000000000000000000000000000000000000000000000000000000000000000000000000000000000000000000000000000000000000000000000000000000000000000000000000000000000000
#053341:00000000000000540000000000000000
#055321:12
#055351:000000000000000000000000000000000000000000000000000000000000000000000000000000000000000000000000000000000000000000000000000000000000000000000000000000000000000000000000000000000000000000000000000000000000000000000000000000000000000000000000000000000000000000000000000000000000000000000000000000000000000000000000000000000000000000000000000000000000000000000000000000000000000000000000000000000000000000000000000000000000000000000000000000000000000000000000000000000000000000000000000000000000000000000000000000000000000000000000000000000000000000000000000000000000000000000000000000000000000000000000000000000000000000000000000000000000000000000000000000000000000000000000000000000000000000000000000000000000000000000000000000000000000000000000000000000000000000000000000000000000000000000000000000000000000000000000000000000000000000000052000000000000000000000000000000000000000000000000000000000000000000000000000000000000000000000000000000000000000000000000220000000000000000000000000000000000000000000000000000000000000000000000000000000000000000000000000000000000000000000000000000000000000000000000000000000000000000000000000000000000000000000000000000000000000000000000000000000000000000000000000000000000000000000000000000000000000000000000000000000000000000000000000000000000000000000000000000000000000000000000000000000000000000000000000000000000000000000000000000000000000000000000000000000000000000000000000000000000000000000000000000000000000000000000000000000000000000000000000000000000000000000000000000000000000000000000000000000000000000000000000000000000000000000000000000000000000000000000000000000000000000000000000000000000000000000000000000000000000000000000000000000000000000000000000000000000000000000000000000000000000000000000000000000000000000000000000000000000000000000000000000000000000000000000000000000000000000000000000000000000000000000000000000000000000000000000000000000000000000000000
#055341:00000000000000540000000000000000
#055380:00120000
#0553b0:000000000000000000000000000000000000000000000000000000000000000000000000000000000000000000000000000000000000000000000000000000000000000000000000000000000000000000000000000000000000000000000000000000000000000000000000000000000000000000000000000000000000000000000000000000000000000000000000000000000000000000000000000000000000000000000000000000000000000000000000000000000000000000000000000000000000000000000000000000000000000000000000000000000000000000000000000000000000000000000000000000000000000000000000000000000000000000000000000000000000000000000000000000000000000000000000000000000000000000000000000000000000000000000000000000000000000000000000000000000000000000000000000000000000000000000000000000000000000000000000000000000000000000000000000000000000000000000000000000000000000000000000000000000000000000000000000000000000000000000000000000000000000000000000000000000000000000000000000000000000000000000000000000000000000000000000000000000000000000000000000000000000000000000000000000000000000000000000000000000000000000000000000000000000000000000000000000000000000000000000000000000000000000000000000000000000000000000000000000000000000000000000000000000000000000000000000000000000000000000000000000000000000000000000000000000000000000000000000000000000000000000000000000000000000000000000000000000000000000000000000000000000000000000000000000000000000000000000000000000000000000000000000000000000000000000000000000000000000000000000000000000000000000000000000000000000000000000000000000000000000000000000000000000000000000000000000000000000000000000000000000000000000000000000000000000000000000000000000000000000000000000000000000000000000000000000000000000000000000000052000000000000000000000000000000000000000000000000000000000000000000000000000000000000000000000000000000000000000000000000000000000000000000000000000000000000000000000000000000000000000000000000000000000000000000000000000000000000000000000000220000000000000000000000000000000000000000000000000000000000000000000000000000000000000000000000000000000000000000000000000000000000000000000000000000000000000000000000000000000000000000000000000000000000000000000000000000000000000000000000000000000000000000000000000000000000000000000000000000000000000000000000000000000000000000000000000000000000000000000000000000000000000000000000000000000000000000000000000000000000000000000000000000000000000000000000000000000000000000000000000000000000000000000000000000000000000000000000000000000000000000000000000000000000000000000000000000000000000000000000000000000000000000000000000000000000000000000000000000000000000000000000000000000000000000000000000000000000000000000000000000000000000000000000000000000000000000000000000000000000000000000000000000000000000000000000000000000000000000000000000000000000000000000000000000000000000000000000000000000000000000000000000000000000000000000000000000000000000000000000000000000000000000000000000000000000000000000000000000000000000000000000000000000000000000000000000000000000000000000000000000000000000000000000000000000000000000000000000000000000000000000000000000000000000000000000000000000000000000000000000000000000000000000000000000000000000000000000000000000000000000000000000000000000000000000000000000000000000000000000000000000000000000000000000000000000000000000000000000000000000000000000000000000000000000000000000000000000000000000000000000000000000000000000000000000000000000000000000000000000000000000000000000000000000000000000000000000000000000000000000000000000000000000000000000000000000000000000000000000000000000000000000000000000000000000000000000000000000000000000000000000000000000000000000000000000000000000000000000000000000000000000000000000000000000000000000000000000000000000000000000000000000000000000000000000000000000000000000000000000000000000000000000000000000000000000000000000000000000000000
#0553a0:00000000000000540000000000000000
#055320:0000000000000013
#056340:33
#056360:0023000000000000
#0563b1:0013000000000000
#056391:00330000
#056371:0000002300000000
#056320:0000001300230000
#056360:0053
#057320:13
#057350:000000000000000000000000000000000000000000000000000000000000000000000000000000000000000000000000000000000000000000000000000000000000000000000000000000000000000000000000000000000000000000000000000000000000000000000000000000000000000000000000000000000000000000000000000000000000000000000000000000000000000000000000000000000000000000000000000000000000000000000000000000000000000000000000000000000000000000000000000000000000000000000000000000000000000000000000000000000000000000000000000000000000000000000000000000000000000000000000000000000000000000000000000000000000000000000000000000000000000000000000000000000000000000000000000000000000000000000000000000000000000000000000000000000000000000000000000000000000000000000053000000000000000000000000000000000000000000000000000000000000000000000000000000000000000000000000000000000000000000000000000000000000000000000000000000000000000000000000000000000000000000000000000000000000000000000000000000000000000000000000230000000000000000000000000000000000000000000000000000000000000000000000000000000000000000000000000000000000000000000000000000000000000000000000000000000000000000000000000000000000000000000000000000000000000000000000000000000000000000000000000000000000000000000000000000000000000000000000000000000000000000000000000000000000000000000000000000000000000000000000000000000000000000000000000000000000000000000000000000000000000000000000000000000000000000000000000000000000000000000000000000000000000000000000000000000000000000000000000000000000000000000000000000000000000000000000000000000000000000000000000000000000000000000000000000000000000000000000000000000000000000000000000000000000000000000000000000000000000000000000000000000000000000000000000000000000000000000000000000000000000000000000000000000000000000000000000000000000000000000000000000000000000000000000000000000000000000000000000000000000000000000000000000000000000000000000000000000000000000000000
#057340:0000005500000000
#057371:13
#0573a1:000000000000000000000000000000000000000000000000000000000000000000000000000000000000000000000000000000000000000000000000000000000000000000000000000000000000000000000000000000000000000000000000000000000000000000000000000000000000000000000000000000000000000000000000000000000000000000000000000000000000000000000000000000000000000000000000000000000000000000000000000000000000000000000000000000000000000000000000000000000000000000000000000000000000000000000000000000000000000000000000000000000000000000000000000000000000000000000000000000000000000000000000000000000000000000000000000000000000000000000000000000000000000000000000000000000000000000000000000000000000000000000000000000000000000000000000000000000000000000000053000000000000000000000000000000000000000000000000000000000000000000000000000000000000000000000000000000000000000000000000000000000000000000000000000000000000000000000000000000000000000000000000000000000000000000000000000000000000000000000000230000000000000000000000000000000000000000000000000000000000000000000000000000000000000000000000000000000000000000000000000000000000000000000000000000000000000000000000000000000000000000000000000000000000000000000000000000000000000000000000000000000000000000000000000000000000000000000000000000000000000000000000000000000000000000000000000000000000000000000000000000000000000000000000000000000000000000000000000000000000000000000000000000000000000000000000000000000000000000000000000000000000000000000000000000000000000000000000000000000000000000000000000000000000000000000000000000000000000000000000000000000000000000000000000000000000000000000000000000000000000000000000000000000000000000000000000000000000000000000000000000000000000000000000000000000000000000000000000000000000000000000000000000000000000000000000000000000000000000000000000000000000000000000000000000000000000000000000000000000000000000000000000000000000000000000000000000000000000000000000
#057391:0000005500000000
#058361:13230000
#058321:0033000000000000
#058371:0000001300230000
#0583b1:0033
#059321:13
#059351:000000000000000000000000000000000000000000000000000000000000000000000000000000000000000000000000000000000000000000000000000000000000000000000000000000000000000000000000000000000000000000000000000000000000000000000000000000000000000000000000000000000000000000000000000000000000000000000000000000000000000000000000000000000000000000000000000000000000000000000000000000000000000000000000000000000000000000000000000000000000000000000000000000000000000000000000000000000000000000000000000000000000000000000000000000000000000000000000000000000000000000000000000000000000000000000000000000000000000000000000000000000000000000000000000000000000000000000000000000000000000000000000000000000000000000000000000000000000000000000053000000000000000000000000000000000000000000000000000000000000000000000000000000000000000000000000000000000000000000000000000000000000000000000000000000000000000000000000000000000000000000000000000000000000000000000000000000000000000000000000230000000000000000000000000000000000000000000000000000000000000000000000000000000000000000000000000000000000000000000000000000000000000000000000000000000000000000000000000000000000000000000000000000000000000000000000000000000000000000000000000000000000000000000000000000000000000000000000000000000000000000000000000000000000000000000000000000000000000000000000000000000000000000000000000000000000000000000000000000000000000000000000000000000000000000000000000000000000000000000000000000000000000000000000000000000000000000000000000000000000000000000000000000000000000000000000000000000000000000000000000000000000000000000000000000000000000000000000000000000000000000000000000000000000000000000000000000000000000000000000000000000000000000000000000000000000000000000000000000000000000000000000000000000000000000000000000000000000000000000000000000000000000000000000000000000000000000000000000000000000000000000000000000000000000000000000000000000000000000000000
#059341:0000005500000000
#059370:13
#0593a0:000000000000000000000000000000000000000000000000000000000000000000000000000000000000000000000000000000000000000000000000000000000000000000000000000000000000000000000000000000000000000000000000000000000000000000000000000000000000000000000000000000000000000000000000000000000000000000000000000000000000000000000000000000000000000000000000000000000000000000000000000000000000000000000000000000000000000000000000000000000000000000000000000000000000000000000000000000000000000000000000000000000000000000000000000000000000000000000000000000000000000000000000000000000000000000000000000000000000000000000000000000000000000000000000000000000000000000000000000000000000000000000000000000000000000000000000000000000000000000000053000000000000000000000000000000000000000000000000000000000000000000000000000000000000000000000000000000000000000000000000000000000000000000000000000000000000000000000000000000000000000000000000000000000000000000000000000000000000000000000000230000000000000000000000000000000000000000000000000000000000000000000000000000000000000000000000000000000000000000000000000000000000000000000000000000000000000000000000000000000000000000000000000000000000000000000000000000000000000000000000000000000000000000000000000000000000000000000000000000000000000000000000000000000000000000000000000000000000000000000000000000000000000000000000000000000000000000000000000000000000000000000000000000000000000000000000000000000000000000000000000000000000000000000000000000000000000000000000000000000000000000000000000000000000000000000000000000000000000000000000000000000000000000000000000000000000000000000000000000000000000000000000000000000000000000000000000000000000000000000000000000000000000000000000000000000000000000000000000000000000000000000000000000000000000000000000000000000000000000000000000000000000000000000000000000000000000000000000000000000000000000000000000000000000000000000000000000000000000000000000
#059390:0000005500000000
#060360:0013000000000000
#060320:0000532300000000
#060371:0000001300000000
#0603b1:0000000053230000
#061321:1400005600000000
#061341:000000000000000000000000000000000000000000000000000000000000000000000000000000000000000000000000000000000000000000000000000000000000000000000000000000000000000000000000000000000000000000000000000000000000000000000000000000000000000000000000000000000000000000000000000000000000000000000000000000000000000000000000000000000000000000000000000000000000000000000054000000000000000000000000000000000000000000000000000000000000000000000000000000000000000000000000000000000000000000000000000000000000000000000000000000000000000000000000000000000000000000000000000000000000000000000000000000000000000000000000000000000000000000000000000000000000000000000000000000000000000000000000000000000000000000000000000000000000000000000000000000000000000000000000000000000000000000000000000000000000000000000000000000000000000000000000000000000000000000000000000000000000000000000000000000000000000000000000000000000000000000000000000000000000000000000000000000000000000000000000
#061351:0023
#061360:14
#061380:000000000000000000000000000000000000000000000000000000000000000000000000000000000000000000000000000000000000000000000000000000000000000000000000000000000000000000000000000000000000000000000000000000000000000000000000000000000000000000000000000000000000000000000000000000000000000000000000000000000000000000000000000000000000000000000000000000000000000000000054560000000000000000000000000000000000000000000000000000000000000000000000000000000000000000000000000000000000000000000000230000000000000000000000000000000000000000000000000000000000000000000000000000000000000000000000000000000000000000000000000000000000000000000000000000000000000000000000000000000000000000000000000000000000000000000000000000000000000000000000000000000000000000000000000000000000000000000000000000000000000000000000000000000000000000000000000000000000000000000000000000000000000000000000000000000000000000000000000000000000000000000000000000000000000000000000000000000000000000000000
#062370:13230000
#0623b0:0033000000000000
#062360:0000001300230000
#062320:0033
#0653a0:14
#065390:0034000000000000000000000000000000000000000000000000000000000000
#065380:00340000000000000000000000000000
#065370:0000003400000000000000000000000000000000000000000000000000000000
#065360:0024000000000000
#0653a0:0000001400000000
#065390:0000000000000000000000000034000000000000000000000000000000000000
#065380:00000000000000340000000000000000
#065370:0000000000000000000000000000003400000000000000000000000000000000
#065360:0024
#0653a0:00000014
#065390:0000000000000000000000000000000000000000000000000034000000000000
#065380:00000000000000000000000000340000
#065370:0000000000000000000000000000000000000000000000000000003400000000
#065360:0000000000000024
#066360:14240000
#066320:0054000000000000
#0663a1:00140000
#066351:0000005500000000
#066381:0026
#066340:00001428
#066320:0000000000550000
#067320:14
#067330:0034000000000000000000000000000000000000000000000000000000000000
#067340:00340000000000000000000000000000
#067350:0000003400000000000000000000000000000000000000000000000000000000
#067360:0024000000000000
#067320:0000001400000000
#067330:0000000000000000000000000034000000000000000000000000000000000000
#067340:00000000000000340000000000000000
#067350:0000000000000000000000000000003400000000000000000000000000000000
#067360:0024
#067320:00000014
#067330:0000000000000000000000000000000000000000000000000034000000000000
#067340:00000000000000000000000000340000
#067350:0000000000000000000000000000000000000000000000000000003400000000
#067360:0000000000000024
#068360:14240000
#0683a0:0054000000000000
#068321:00142600
#068361:0000005500000000
#068380:0014
#068390:0000000000550000
#068340:00000028
#071360:00000013
#071320:0000000000000053
#072360:23
#0713b1:00000013
#071371:0000000000000053
#0723b1:23
#0733a1:14
#073381:0034000000000000000000000000000000000000000000000000000000000000
#073361:00340000000000000000000000000000
#073351:0000003400000000000000000000000000000000000000000000000000000000
#073341:0024000000000000
#0733a1:0000001400000000
#073381:0000000000000000000000000034000000000000000000000000000000000000
#073361:00000000000000340000000000000000
#073351:0000000000000000000000000000003400000000000000000000000000000000
#073341:0024
#0733a1:00000014
#073381:0000000000000000000000000000000000000000000000000034000000000000
#073361:00000000000000000000000000340000
#073351:0000000000000000000000000000000000000000000000000000003400000000
#073341:0000000000000024
#074321:14240000
#074371:0054000000000000
#0743a0:00140000
#074340:0000005500000000
#074380:0026
#074321:00001628
#074381:0000000000560000
#075321:14
#075341:0034000000000000000000000000000000000000000000000000000000000000
#075361:00340000000000000000000000000000
#075371:0000003400000000000000000000000000000000000000000000000000000000
#075381:0024000000000000
#075321:0000001400000000
#075341:0000000000000000000000000034000000000000000000000000000000000000
#075361:00000000000000340000000000000000
#075371:0000000000000000000000000000003400000000000000000000000000000000
#075381:0024
#075321:00000014
#075341:0000000000000000000000000000000000000000000000000034000000000000
#075361:00000000000000000000000000340000
#075371:0000000000000000000000000000000000000000000000000000003400000000
#075381:0000000000000024
#0763a1:14240000
#076351:0054000000000000
#076320:00142600
#076370:0000005500000000
#076381:0016
#076321:0000000000560000
#076361:00000028
#079361:14
#0793a1:0054240000000000
#079360:00140000
#079320:0000005424000000
#081370:0000001300230000
#0813b0:0053
#081320:0000000000000013
#082360:53
#082320:0023000000000000
#0823b0:00130000
#082370:0000002300000000
#082320:00001323
#082360:0000000000330000
#083360:0000001300230000
#083320:0053
#0833b0:0000000000000013
#084370:53
#0843b0:0023000000000000
#084320:00130000
#084360:0000002300000000
#085370:0013
#0853b0:0000000000230000
#085360:0000000000000013
#086320:53
#086360:0023000000000000
#0863b0:00130000
#086370:0000002300000000
#086320:00001323
#086360:0000000000330000
#088320:00001323
#088350:0000000000330000
#0883b1:00001323
#088381:0000000000330000
#088321:0000000000000016
#089321:00000022
#088380:0000000000000016
#0893c0:00000022
