This file was generated by Ched 2.6.4.0.
#TITLE ""
#ARTIST ""
#DESIGNER ""
#DIFFICULTY 0
#PLAYLEVEL
#SONGID ""
#WAVE ""
#WAVEOFFSET 0
#JACKET ""
#REQUEST "ticks_per_beat 480"
#00002: 4
#BPM01: 204
#00008: 01
#TIL00: ""
#HISPEED 00
#MEASUREHS 00
#00114:0014
#0011a:24
#06514:00140000
#06518:0014
#06512:00000014
#0651a:24
#0651f:21
#0631a:14
#0661a:14000014
#06616:00140000
#06612:0014
#06610:41
#00218:0014
#00312:14
#00318:0014
#00414:0014
#00514:0014
#0051a:24
#00510:41
#00618:0014
#00712:14
#00718:0014
#00814:0014
#0091a:2414
#00914:00140000
#01118:2414
#01112:00140000
#01318:0014
#01314:00140000
#0131a:24
#0171a:1414
#01714:00140014
#01710:41
#01818:1414
#01812:00140000
#01414:0014
#01418:00140000
#01412:24
#01214:1414
#0121a:00140000
#01012:1414
#01018:00140000
#01912:1414
#01918:00140014
#02014:1414
#0201a:00140000
#0211a:14
#02114:00140000
#02118:0014
#02112:00000014
#02218:14
#02214:00140000
#0221a:0014
#02312:14
#02318:00140000
#02314:0014
#0231a:00000014
#02414:14
#02418:00140000
#02412:0014
#02518:14
#02514:00140000
#02612:0014
#0261a:0014
#02714:14
#02718:00140000
#0281a:0014
#02812:0014
#03318:1414
#03314:00140000
#03514:1414
#03518:00140000
#0371a:14
#03712:00140000
#03718:0014
#03714:00000014
#0381a:14
#03812:00140000
#03818:0014
#03814:00000014
#0411a:14
#04114:00140000
#04118:0014
#04112:00000014
#04110:41
#0421a:14
#04214:00140000
#04218:0014
#04312:14
#04318:00140000
#04314:0014
#0431a:00000014
#04412:14
#04418:00140000
#04414:0014
#04518:14
#04512:00140000
#0451a:0014
#04514:00000014
#04618:14
#04612:00140000
#0461a:0014
#04714:14
#0471a:00140000
#04712:0014
#04718:00000014
#04814:14
#0481a:00140000
#04812:0014
#0571a:14
#05718:00140000
#05014:14
#0501a:00140000
#05012:0014
#05018:00000014
#0491a:14
#0491f:11
#0521a:14
#05214:14
#05218:0014
#05212:0014
#05114:14
#05418:14
#05412:00140000
#0541a:0014
#05414:00000014
#05312:14
#05518:14
#05612:14
#05618:14
#05614:0014
#0561a:0014
#05812:14
#0581a:00140000
#05814:0014
#05818:00000014
#05914:14
#05912:00140000
#06012:14
#06018:14
#06014:0014
#0601a:0014
#06112:14
#06114:00140000
#0621a:14
#06212:00140000
#06218:0014
#06214:00000014
#07218:0014
#07214:00000014
#07212:14
#07314:00140000
#07319:0014
#07313:00000014
#0731a:24
#07418:14
#07412:00140000
#07416:0014
#0741a:00000014
#06718:00140000
#06714:0014
#0671a:00000014
#06712:24
#06812:14000014
#06816:00140000
#0681a:0014
#07518:00140000
#07513:0014
#07519:00000014
#07512:24
#07614:14
#0761a:00140000
#07616:0014
#07612:00000014
#07114:0014
#07118:00000014
#0711a:24
#08118:14
#08114:00140000
#0811a:0014
#08112:00000014
#08218:14
#08214:00140000
#0821a:0014
#08314:14
#08318:00140000
#08312:0014
#0831a:00000014
#08414:14
#08418:00140000
#08412:0014
#0851a:14
#08512:00140000
#08518:0014
#08514:00000014
#0861a:14
#08612:00140000
#08618:0014
#08812:1400000000000036
#08816:00140000
#0881a:0014
#0871a:00001414
#08712:14140000
#03214:0024
#0801a:24
#08012:24
#07918:26
#07912:0026
#0151a:24
#01512:24
#0391a:24
#03912:24
#0691a:24
#0701a:24
#07718:24
#07710:41
#07818:24
#02910:41
#0655a:14
#0635a:14
#03254:0014
#07958:16
#07952:0016
#0575a:54
#05758:00240000
#0495a:64
#05154:64
#05352:54
#05558:54
#05954:54
#05952:00240000
#06152:64
#06154:00240000
#0735a:14
#06752:14
#07552:14
#025380:0014
#026380:24
#027340:0014
#028340:24
#029380:1424
#030340:1424
#0313a0:14
#031380:0024
#032320:14
#032340:0024
#033340:00000014
#034320:0024
#035380:00000014
#0363a0:0024
#0493a0:14
#049380:0024
#051340:14
#051320:0024
#053320:14
#053340:0024
#055380:14
#0553a0:0024
#0573a0:1424
#057380:00540000
#059340:1424
#059320:00540000
#061320:1424
#061340:00540000
#0693a0:14
#069380:00240000
#069320:0014
#069340:00000024
#0703a0:14
#070380:00240000
#070320:0014
#070340:00000024
#0713a0:14
#071380:00240000
#077380:14
#0773a0:00240000
#077340:0014
#077320:00000024
#078380:14
#0783a0:00240000
#078340:0014
#078320:00000024
#088320:0000000000001636
#089320:00000024
