This file was generated by Ched 2.7.0.0.
#TITLE ""
#ARTIST ""
#DESIGNER ""
#DIFFICULTY 0
#PLAYLEVEL
#SONGID ""
#WAVE ""
#WAVEOFFSET 0
#JACKET ""
#REQUEST "ticks_per_beat 480"
#00002: 4
#BPM01: 120
#00008: 01
#TIL00: ""
#HISPEED 00
#MEASUREHS 00
#00019:14
#00113:14
#00219:14
#00313:14
#0041a:14
#00410:41
#00514:14
#00618:14
#00712:14
#00818:14
#00914:14
#01018:14
#01114:14
#0161a:14
#0161f:11
#0171a:14
#01814:14
#01914:14
#02018:14
#02118:14
#02212:14
#02312:14
#02412:0016
#02418:26
#0241f:21
#02518:16
#02510:41
#02612:16
#02618:0016
#02712:16
#02812:0016
#02818:26
#03012:16
#03018:0016
#03212:0016
#03218:26
#03210:41
#03318:1616
#03412:16
#03418:0016
#03512:1616
#03612:0016
#03618:26
#03812:16
#03818:0016
#0401a:14
#04010:41
#04114:14
#04218:14
#04312:14
#04419:14
#04513:14
#04618:14
#04610:41
#04718:14
#04814:14
#04914:14
#0501a:14
#0511a:14
#05212:14
#01210:41
#0123a0:14
#0133a0:24
#014320:14
#015320:24
#029380:1626
#031320:1626
#037380:1626
#039320:1626
#053320:14000000000000240000000000000000
