This file was generated by Ched 2.7.0.0.
#TITLE ""
#ARTIST ""
#DESIGNER ""
#DIFFICULTY 0
#PLAYLEVEL
#SONGID ""
#WAVE ""
#WAVEOFFSET 0
#JACKET ""
#REQUEST "ticks_per_beat 480"
#00002: 4
#BPM01: 120
#00008: 01
#TIL00: ""
#HISPEED 00
#MEASUREHS 00
#0031a:001414141414240000000000
#00312:001414141414240000130000
#00316:0000000000000013
#00313:0000000000000000000000000000000000000000000000000000000000000033
#00314:00000000000000000000000000000033
#00315:0000000000000000000000000000000000000000000000000000000000330000
#00812:00000000001300000013000000001300
#00816:00000000000000130000000013000000
#00817:0000130000000013
#0081b:1313000000000000
#00916:13000000001300000000000000000000
#00917:0013000000000000
#0091b:13130000
#00915:00000000000000000013000000000013
#00912:00001300000000130000000013000000
#00918:0000000000000013
#0101b:00000000000013000013000000001300
#01017:00000013
#01012:0013000000000013
#01016:00130000
#01112:0000001300000000
#0111b:0000000000000013
#0121a:14140000
#01212:0014000000130000
#01216:13000014000000000000000000001300
#01214:00000000001400140000000000000000
#01218:0000001400000000
#0121b:00000000000000000000000000000013
#01217:00000000000000000000001300000000
#01210:41
#0131b:00000013000000001300000000001300
#01314:0000000000130000
#01312:0000001300000000000000001300000000000000000000001300000000000000
#01316:1313
#01319:0000000000130000
#01317:0000000000000000001300000000000000000000000000001300000000000000
#01412:14140000
#0141a:0014000000000000
#01416:00000014000000000000001300000000
#0141b:0000000000130000
#01418:00000000001400140000000000001300
#01414:0000001400000000
#01415:00000000000000000000000000000013
#0151b:23000023000000130000000000000000
#01512:23000000130000000023000000230023
#01518:00000000002300000000130000002300
#01515:00001300000000230000002300000000
#01616:0000000013000013
#0161b:00003313000000000000000013000013
#01617:13000000001300000000000000000000
#01612:00130000
#0161f:11
#0171b:0000130000000013
#01717:0013
#01712:00003313000000000000000013000000
#01716:13000000001300000000000000000000
#01818:13000000130000000000000000130000
#0181b:0013001300130000
#01815:00000013
#01812:1300001300130000
#01816:00000013000000000000000000000000
#02012:16000000000000000000000000000013
#02016:00000013000000000000000000000000
#02017:00000000000013000000000000000013
#02015:00000000000000000000130000130000
#02018:0013000000000000
#0201b:13
#0201a:00240024
#02216:14141400
#02214:00140014001400140014001400140000
#02212:00001400000014000000140000000014
#02218:0000000000000014
#0221a:00240024
#02312:00001300000000250000000000000000
#0231b:0013000000000000
#02315:00230000
#02318:00000000002300000000000000000000
#02319:00000000000000250000000000000000
#0261b:1300001300000000
#02615:0000000000130000
#02618:00000013
#02612:00000013000000000000000013000000
#02617:0013
#02512:13000000003313000000000000000000
#02516:00003313000000000000000000000000
#02515:00000000000000000013000000000013
#02517:13
#0251b:00003313000013000000000000000000
#02518:0000000000000000001300000000000000001300000000000000000013000000
#02519:00000000003300000000000000000000
#02510:41
#02712:13132400
#02718:00130000001300000013000000130000
#02715:0013002300130013
#0271b:00000013000023000000001300000013
#02714:00000024
#02412:00001313
#02417:00000000000000000000000000130000
#02416:0000001300000000
#0241b:0000000000130000
#0241a:24
#0241f:21
#02812:00000013000000000000000013000000
#0281b:00000000000000000000000000130000
#02816:24
#03012:13001313
#0301b:00000000001300000000130000000000
#03018:00000013
#03016:00000013000013000000000000000000
#03017:13
#03118:00001300001300000000000000001300
#03115:00000000130013000000000000000013
#0311a:00000000000000140014000000000000
#03112:23000000000000140000001400130000
#03116:0000000000140000
#0311b:23000013
#03412:1300001300000000
#03418:0000000000130000
#03415:00000013
#0341b:00000013000000000000000013000000
#03416:0013
#03315:0000000000000000001300000000000000001300000000000000000013000000
#03318:00000000000000000013000000000013
#0331b:13000000003313000000000000000000
#03317:00003313000000000000000000000000
#03316:13
#03312:00003313000013000000000000000000
#03314:00000000003300000000000000000000
#0351b:13130000
#03515:00130000001300000013000000130000
#03518:0013002300132413
#03512:00000013000023000000001300000013
#0351a:0024
#0361b:00000013000000000000000013000000
#03612:00000000000000000000000000130000
#03616:24
#0371b:00000013001300000000130000000000
#03716:0000130000130000
#03712:0013000000001300
#03715:00000000000000000000000000130000
#03718:0000000000000013
#03717:0013
#03915:00001300000000130000000000000013
#03918:00000000001300130000000000001300
#04018:26000013000000000000000000000000
#04012:13131313
#04017:00000013
#04015:0000002300000000
#04010:41
#04218:26000013000000000000000000000000
#04212:13131313
#0421b:00000000000000000000000000000013
#04216:0000000000000013
#04219:0013
#04215:0000002300000000
#04312:26000013000000001300000000000000
#0431b:0000131300000000
#04316:00000000000013000000000000000013
#04314:00000000000000000000000000130000
#04319:0000000000000013
#04317:00001313
#04418:0000001626000000
#04412:2600000014000016
#0441a:14
#04512:00130000001300002500250000000000
#04518:0013001300000000
#04515:00000013000000130000000000000000
#04519:0000000025250000
#0451b:23230000
#04615:00130000000000000000000000000000
#0461b:1300131300130000
#04618:0013000000000000
#04612:00000013000000130013000000000013
#04616:00000000001300000000001300000000
#04617:0000000013000013
#04619:00000013
#04614:00000000000000000000000000130000
#04610:41
#05015:00000000130000000000000000120000
#05018:00000000001300000000000000001200
#0501b:000000000000230000000000000000000000000000130000000013000000000000000000000000000000000000000000
#05012:230000000000000000000000000000000000000000130000000000003300330033003300000000000000000000000000
#05016:000000000000000000000000001300000000000000000000
#0501a:00000012
#05013:00000000000000000000000000000012
#05212:13000000130000230000001300000000
#05215:00001300002300000023000000130000
#05218:00000023000000130000002300000023
#0521b:00230000130000000013000000230000
#05314:0014000000000000
#05312:14000000000000240000000000000000
#05316:00140000
#0531a:00000000000000240000000000000000
#05319:00000000002400000000000000000000
#05313:00000000002400000000000000000000
#0531c:22
#04918:00000013000013000000000000000000
#04912:00000000130000130013001300132300
#04915:00001300001300000000000000000000
#0491b:13000000130000230000000000000000
#04919:00000000000000000023000000003300
#04917:00000000000000000000002300000000
#0491a:00000000000000000000000000000033
#0001b:13000000000000000013001300000000
#00017:00001300000000000000000000000013
#00012:0013130013000000
#00016:00000013
#00018:00000000001300130000000000000000
#00019:00000000000000000000000000130000
#00014:0000000000000013
#01912:14
#0191a:00140000
#02117:0013
#02112:00001300000000000000130000130024
#02116:00000000001300000000000000000000
#0211a:00240024
#0321b:00001313
#03216:00000000000000000000000000130000
#03217:0000001300000000
#03212:2400000000130000
#03210:41
#0381b:13001313
#03812:00000000001300000000130000000000
#03815:00000013
#03817:00000013000013000000000000000000
#03816:13
#0411b:13131313
#04115:00000013000000000000000000000000
#04116:00000013
#04112:26
#04118:0000002300000000
#02912:00000000001300000000130000000000
#02917:0000000000130000
#0291b:0013130000001300
#02916:00000013000000001300000000000000
#02918:00000000000000000000000000130000
#02915:0000000000000013
#05113:000000000000000000000000000000120000000000000000000000000000000000000000000000003300000000000000
#05118:160000001600000000120000000000000000000000000000
#05115:00000000000000120000000013000000
#0511a:000000000000120033000033
#05116:0000000000130000
#0511b:0000000000130013
#05112:001600000000000000000000
#05119:000000000000000000000000000000000033000000000033
#05114:000000000000000000000000000000000000003300000000
#00112:13000000000000000013001300000000
#00116:00001300000000000000000000000013
#0011b:0013130013000000
#00117:00000013
#00115:00000000001300130000000000000000
#00114:00000000000000000000000000130000
#00119:0000000000000013
#00618:00000000001300000000130000130000
#00615:00000000000013000013000000001300
#00616:13
#0061b:23002300000000000000000000000013
#0051a:14
#00512:00140000000000000000000000000000
#00516:0000000000000000001400000000000000000000000000001300000000000000
#00517:0013
#00514:0000000000130000
#00519:0000000000130000
#0051b:00000013
#00513:0000000000000013
#00518:0000000000000013
#0041a:1400000000001414
#00416:0000000000000000000000140000000000000000000000000000000000002400
#00412:23000000000000000000002400000000
#00414:00000000000000000000000000240000
#00410:41
#00718:00130000001300260000000013001300
#0071b:00000013000000000000000000000000
#00715:00002300230000000000000000130013
#00712:2300002300000000
#0471b:1300001300000013
#04715:00130000001300000000000000000013
#04718:0013130000000000
#04712:00000013000000130000000000130000
#04815:00000000000000000013001300000013
#04818:0000000000130013
#0481b:00000013
#04812:00001300000000000000000000130000
#00212:0013130013000023
#00217:00000000001300130000000000000000
#0021b:13001300000000000013001300002300
#00215:00000013
#00218:00000000000000000000000000130000
#0125a:14
#01257:00000000000000000000006300000000
#01452:14
#01456:00000000000000000000005300000000
#02052:16
#02056:00000063000000000000000000000000
#02057:00000000000063000000000000000063
#02256:24242400
#02252:0024002400240000
#02254:00640064006400640064006400000000
#02152:00006300000000000000000000000064
#02156:00000000002300000000000000000000
#02555:00000000000000000023000000000000
#02552:6300006300003300
#02556:00000063000000000000000000000000
#02557:63
#0255b:00000063000053000000000043000000
#02558:0000000000000000002300000000000000002300000000000000000000000000
#02652:00000053000000000000000000000000
#0265b:5300005300000000
#02657:0023
#02754:00000034
#02752:0034
#02856:34
#03152:00000000000000140000000000000000
#0315a:00000000000000140000000000000000
#03452:6300006300000000
#0345b:00000063000000000000000000000000
#03456:0023
#0355a:0044
#03558:00000044
#03656:44
#04356:0000005300000000
#04352:00000053000000002300000000000000
#04357:0023
#0435b:0000135300000000
#04453:00000014000000000000000000000000
#04459:00000000000000000000001400000000
#04458:0056
#04452:5614
#0445a:14
#0535a:00000000000000140000000000000000
#05352:00000000000000140000000000000000
#0005b:53
#00057:0023000000000000
#01558:0000000000230000
#0155b:63000000000000630000000000000000
#01552:00130000
#0245a:14
#02455:00000013000000000000000000000000
#0245b:0000001300230000
#02456:0000006300000000
#02452:0023
#01657:63000000006300000000000000000000
#0165b:00000063000000000000000000000000
#01656:0063
#01652:13
#01757:0053
#01756:53000000005300000000000000000000
#01752:00000053000000000000000000000000
#03257:0000005300000000
#0325b:0023
#03252:1400001300230000
#03258:00000013000000000000000000000000
#0135b:00000063000000000000000000002300
#01356:63
#01357:0000000000000000002300000000000000000000000000005300000000000000
#01352:0000002300000000000000000000000000000000000000000000000000000000
#03055:0000000000130000
#03058:00000013
#03056:0000005300000000
#03057:53
#03052:0023
#03955:00000000000000230000000000000000
#03958:00000000000000230000000000000000
#03952:00000033
#0395b:00000043
#03855:00000013
#03857:0000006300000000
#03856:63
#03858:0000000000130000
#0385b:0023
#05052:13
#05056:000000000000000000000000005300000000000000000000
#0505b:0013000000000000
#0335b:5300005300004300
#03357:00000053000000000000000000000000
#03358:00000000000000000023000000000000
#03356:53
#03352:00000053000063000000000033000000
#03355:0000000000000000002300000000000000002300000000000000000000000000
#04058:16
#04057:00000013
#0085b:13
#04257:00000013
#04156:00000013
#04552:0000000015150000
#04559:0000000015150000
#01856:00000063000000000000000000000000
#01858:00630000
#01852:0000002300000000
#0185b:0000002300000000
#0465b:13
#00152:63
#00156:0023000000000000
#00356:0000000000000023
#00352:00000063
#00758:00000000000000160000000000000000
#00452:33
#00456:0000000000000000000000240000000000000000000000000000000000000000
#0045a:64
#00552:00640000000000000000000000000000
#00556:0000000000000000002400000000000000000000000000000000000000000000
#0495b:13
#0515b:0000000000530053
#05155:00000053
#0025b:1353000000000000
#0003b0:13230000
#000370:0053000000000000
#001320:13230000
#001360:0053000000000000
#0023b0:0013000000000000
#002370:00230000
#003320:00000013
#003360:0000000000000053
#003350:0000000000000000000000000000000000000000000000000000000000330000
#003340:00000000000000000000000000000033
#003330:0000000000000000000000000000000000000000000000000000000000000033
#004320:23
#0043a1:14000000000000000000002400000000
#004361:0000000000000000000000540000000000000000000000000000000000000000
#005321:00140000000000002400000000000000
#005361:0000000000000000005400000000000000000000000000000000000000000000
#006321:00001300002300000000000000000000
#0063b1:00000000000000130023000000000000
#006321:00000000000000000000001300230000
#008321:13230000
#008361:0033000000000000
#0083b1:00000000000000130000000000000000
#008371:00000000000000000023000000000000
#008371:0000000000130000
#0083b1:00000023
#0093b1:00000000000000130023000000000000
#009381:0000000000132300
#0103b1:13230000
#010371:0033000000000000
#010321:00000000000000130000000000000000
#010361:00000000000000000023000000000000
#010361:0000000000130000
#010321:00000023
#0113b1:13230000
#011381:0033000000000000
#011320:13230000
#011350:0033000000000000
#011370:00000000000000130000000023000000
#0113b0:0000000000330000
#011361:0000000000130023
#011321:00000033
#012371:0000000013230000
#012371:00000000000000000000001300000000
#0123b1:0000000000000023
#013361:13000023000000000000000000000000
#013321:0000005300000000000000000000000000000000000000000000000000000000
#0133b0:00000013000023000000000000000000
#013370:0000000000000000005300000000000000000000000000000000000000000000
#013370:00000013
#0133b0:0000000000000053
#014370:23
#014360:0000000013230000
#014360:00000000000000000000001300000000
#014320:0000000000000023
#0153b0:13
#015380:0023000000000000
#0153b0:00000000000000130000000000230000
#015380:0000000000530000
#015320:00000000000000000000000000000013
#016320:23
#016371:13000000003300000000000000000000
#0163b1:00003333000000002300000000000000
#016360:0013
#016320:00000023
#017360:13000000003300000000000000000000
#017320:00003333000000002300000000000000
#017371:0013
#0173b1:00000023
#018361:00000013000000000000000000000000
#018321:0000005300000000
#018351:0023
#018380:00132300
#0183b0:0000005300000000
#019370:1424000000000000
#019350:0000142400000000
#019370:0000000014240000
#019321:0000000014240000
#019351:0000000000001424
#0193a0:0000000000001424
#020360:00000013000000000000000000000000
#020320:0000002300000000
#020371:0000001300000000
#0203b1:0000000000230000
#020371:00000000000000000000000000000013
#0213b1:0023000000000000
#021320:0013000023000000
#021360:00000000005300000000000000000000
#021320:00000000000000000000000000000014
#022360:54545424
#022340:00540054005400540054005400000000
#022320:0054005400540000
#024320:13
#024350:00530023000000000000000000000000
#024381:00000013000000000000000000000000
#0243b1:0000532300000000
#024360:0000001300230000
#024320:0053
#0243b1:0000000000130000
#024371:00000023
#025321:13000000003333000000000023000000
#025361:00003333000000000000000000000000
#025351:00000000000000000053000000000000
#025370:13
#0253b0:00003333000033000000000023000000
#025380:0000000000000000005300000000000000005300000000000000000000000000
#025390:00000000003300000000000000000000
#0263b0:13
#026370:00000023000000000000000000000000
#026321:00000013000000000000000000000000
#026361:0000002300000000
#0263b0:0000001300230000
#026370:0053
#0263b0:00000000000000000000000000130000
#0273b0:23
#0283b0:1300002300000000
#028370:00000033000000000000000000000000
#028361:0000001300000000
#028321:0000000000230000
#028370:0000000000130000
#0283b0:00000023
#029320:13
#029360:0023000000000000
#029370:0000001300000000
#0293b0:0023
#030370:13
#0303b0:00000023000000000000000000000000
#030360:0000001300000000
#030320:0053
#030350:0000000000230000
#0323b0:13
#032380:00530023000000000000000000000000
#032351:00000013000000000000000000000000
#032321:0000532300000000
#032370:0000001300230000
#0323b0:0053
#032321:0000000000130000
#032361:00000023
#0333b1:13000000003333000000000023000000
#033371:00003333000000000000000000000000
#033381:00000000000000000053000000000000
#033360:13
#033320:00003333000033000000000023000000
#033350:0000000000000000005300000000000000005300000000000000000000000000
#033340:00000000003300000000000000000000
#034320:13
#034360:00000023000000000000000000000000
#0343b1:00000013000000000000000000000000
#034371:0000002300000000
#034320:0000001300230000
#034360:0053
#034320:00000000000000000000000000130000
#035320:23
#036320:1300002300000000
#036360:00000033000000000000000000000000
#036371:0000001300000000
#0363b1:0000000000230000
#036360:0000000000130000
#036320:00000023
#0373b0:13
#037370:0023000000000000
#037360:0000001300000000
#037320:0023
#038360:13
#038320:00000023000000000000000000000000
#038370:0000001300000000
#0383b0:0053
#038380:0000000000230000
#0393b0:13
#039380:0023000000000000
#039320:00000013000000000000000000000000
#039350:00000000002300000000000000000000
#039350:00000000000000130000000000000000
#039320:00000023
#039381:00000000000000130000000000000000
#0393b1:00000023
#0403b1:0000001300000000
#040371:0000000000230000
#041321:0000001300000000
#041361:0000000000230000
#0423b1:0000132300000000
#042371:0000000000132300
#043321:00000013000000005300000000000000
#043361:0000003300230000
#0433b0:0000001300230000
#043370:0053
#044320:16
#044330:00000024000000000000000000000000
#044380:0016
#044390:00000000000000000000002400000000
#047380:00000000000000130023000000000000
#047351:00000000000000000013002300000000
#047380:00000000000000000000001300230000
#0483b0:13
#048370:0023000000000000
#048370:00000013000000000000000000000000
#0483b0:00000000002300000000000000000000
#048361:00000000001300000000000000000000
#048321:00000000000000230000000000000000
#048370:00000000000000130000000000000000
#0483b0:00000000000000000023000000000000
#049370:00000000000000000000000000130000
#049390:0000000000000033
#0493a0:00000000000000000000000000000033
#0503b0:23
#050360:000000000000000000000000001300000000000000000000
#050320:000000000000000000000000000033333333230000000000
#0513b0:0000000000130000
#0513a0:000033
#051390:000000000000000000000000000000000033000000000000
#051380:00000023
#051351:00000013
#051341:000000000000000000000000000000000000003300000000
#051331:000000000033
#051321:0000000000000023
#0513b0:0000000000000013
#0513a0:000000000000000000000033
#051390:000000000000000000000000000000000000000000000033
#052380:23
#0533c0:123232220000000000000000
#0533b0:000000320032000000000000000000000000000000000000
