This file was generated by Ched 2.7.0.0.
#TITLE ""
#ARTIST ""
#DESIGNER ""
#DIFFICULTY 0
#PLAYLEVEL
#SONGID ""
#WAVE ""
#WAVEOFFSET 0
#JACKET ""
#REQUEST "ticks_per_beat 480"
#00002: 4
#BPM01: 120
#00008: 01
#TIL00: ""
#HISPEED 00
#MEASUREHS 00
#00312:001600160016000000000000
#00318:001616260000
#00812:0000130000000013
#00815:0013000000000000
#00818:13
#0081b:00000000001300000000000000000000
#00918:0013000000000013
#0091b:00130000
#00915:13000000000000000000000000000013
#00912:00000000001300000000000000000000
#01318:00000013000000001300000000000000
#01315:1300000000130000
#0131b:0000001300000000
#01218:00000000000000000000001300000013
#01215:0000000000130013
#01213:00000033000000330000000000000000
#01214:0000333300000000
#01210:41
#01818:13000000000000000000000000130000
#01815:0013000000000000
#01812:0000000000131300
#02214:14141400
#02213:00140014001400140014001400000000
#02212:0014001400140000
#02318:00001400002400000000000000000000
#02314:00240000
#02319:00000000000000250000000000000000
#02312:00000000000000250000000000000000
#02512:13000000003313000000000000000000
#02516:00003313000000000013000000000000
#02515:00000000000000000000000000000013
#02518:0000000000000013
#02510:41
#0261b:13000013
#02612:00000000000013000000000000130000
#02715:0013000000000000
#0271b:00000013000000000000000000000000
#02718:13000000001300000000000000000000
#02712:0000002300000000
#02717:0024
#02412:00000013000000000000000013000000
#0241b:00000000000013000000000000130000
#02415:0000000000130000
#0241a:24
#0241f:21
#0301b:00000000001300000000000000000000
#03018:13000013
#03015:0000001300000000
#0311b:0013000000000000
#03115:00130000
#03118:00000000001300000000000000000000
#03112:0013001300000000
#03915:00000013000000130000000000000000
#03918:00000000001300000000000000000000
#03912:0000000000000000000000000000000000000013000000000000000000000000
#04215:00000000000000000000000013000013
#04218:0000000000000013
#0421b:13
#04217:00130000
#04212:0000000000130000
#04312:00000013000000000013000000000000
#04316:0000001300000000
#0431b:13
#04918:00000013001300000000000000000013
#04915:0013130000000013
#0491b:00000000000000000000000000130000
#04912:00000000000000240000002400000000
#0491a:00000000000000000024000000000000
#0001b:1313
#00017:00130000
#01618:00001300001300000000000000000000
#01612:13
#01615:00000013000000000000000000001300
#0161b:0013
#0161f:11
#02015:00000013000000000000000000130000
#02012:0000001300000000
#02018:00001300000000000000000013000013
#0201b:13
#0211b:00001300000000000000000000130000
#02112:00000000000000000000130000000024
#02115:00000013
#02912:0000000000130000
#02917:00003313000000000000000000000000
#02918:0000000000001313
#02915:00000000000000000000000000130000
#0291b:13000000003300000000000000000000
#05015:000000000000000000000000001300000000000000000000
#05012:230000000000230000000000000000000000000000000000000000003300330033003300130000330000330000000000
#0501b:0023000000000000
#0041b:13
#00417:00130000
#00418:0000000000001313
#00412:00000000000000000000002300230000
#00410:41
#00515:0000000000130000
#00518:00000013
#00512:00130000000000000000000000001300
#00516:0000000000000000001300000000000000000000000000000000000000000000
#05115:0000000000130013
#05112:00000013
#0511b:13
#05117:000000000000000033000000000000130000000000000000000000000000000000000000000000000000000000000000
#05114:000000000000000033003333
#05113:000000000000000000000000000000000033003300000033
#05119:000033000000000000330000000000000000000000000000
#0511a:00000000000000330000000000000000
#00112:1313
#00116:00130000
#0021b:1313
#00217:00130000
#00718:00000000130000230000000000000000
#00715:00000000001300000000000000000000
#00712:2323000000000000
#01018:13000000000000000013330000000000
#01012:0013001300000013
#0101b:0000131300000000
#01015:00000000000000000013330000000000
#01013:00000000000000330000000000000000
#0101a:00000000000000330000000000000000
#01115:1300001300000013
#01118:0013000000001300
#0111b:00130000
#01418:0000000000130013
#01415:00000000000000000000001300000013
#0141a:00000033000000330000000000000000
#01419:0000333300000000
#01518:1300000000000013
#0171b:1300000000000013
#01715:00001300001300000000000000000000
#01718:00000013000000000000000000000000
#01712:0013
#02815:00000000000000000000000000130000
#0281b:0000000000130000
#02818:00000013
#04016:0000000000130000
#0401b:0000000000130000
#04014:00000013
#04019:00000013
#04017:0000000000000013
#04012:0000000000000013
#04010:41
#0411b:0000000000130000
#04118:00000013
#04115:00000000000000000000000000130000
#05314:1414140000000000
#05312:00000000000000240000000000000000
#0531a:00000000000000240000000000000000
#05318:00000000002400000000000000000000
#04612:13000000000000130000000000000000
#0461b:00001300000000000000000000000033
#04618:00000000001300000000130000000000
#04615:00000000130000000000001300000000
#04619:00000000000000000000000000330000
#0461a:0000000000000033
#04610:41
#04712:00001300000000000000000000000033
#04718:00000000130000000000001300000000
#04715:00000000001300000000130000000000
#0471b:00000000000000130000000000000000
#04714:00000000000000000000000000330000
#04713:0000000000000033
#0481b:00001300000000000000000000000033
#04815:00000000130000000000001300000000
#04818:00000000001300000000130000000000
#04812:00000000000000130000000000000000
#04819:00000000000000000000000000330000
#0481a:0000000000000033
#04518:13000013000000000000000000000000
#04515:0013000000000000
#0451b:0000001300230023
#04512:0000001300230023
#04519:00000023
#04514:00000023
#0331b:13000000003313000000000000000000
#03317:00003313000000000013000000000000
#03318:00000000000000000000000000000013
#03315:0000000000000013
#03412:13000013
#0341b:00000000000013000000000000130000
#03518:0013000000000000
#03512:00000013000000000000000000000000
#03515:13000000001300002400000000000000
#0351b:0000002300000000
#0321b:00000013000000000000000013000000
#03212:24000000000013000000000000130000
#03218:0000000000130000
#03210:41
#03812:00000000001300000000000000000000
#03815:13000013
#03818:0000001300000000
#0371b:0000000000130000
#03716:00003313000000000000000000000000
#03715:0000000000001313
#03718:00000000000000000000000000130000
#03712:13000000003300000000000000000000
#03618:00000000000000000000000000130000
#03612:0000000000130000
#03615:00000013
#04418:26
#04412:0026
#0521b:00000000000000230000000000000023
#05212:00000000000000000023000000000000
#05215:00000023000000000000002300000000
#05218:00230000002300000000000000230000
#0061b:23
#02254:24242400
#02252:0024002400240000
#02253:00640064006400640064006400000000
#02152:00000000000000000000000000000064
#0215b:0053000000000000
#02556:00000063000000000023000000000000
#02552:6300006300003300
#04356:0000005300000000
#04352:00000053000000000023000000000000
#04458:00000016000000000000000000000000
#04452:00000000000000000000001600000000
#0535a:00000000000000140000000000000000
#05352:00000000000000140000000000000000
#0005b:5363
#00057:00230000
#0245a:14
#0245b:0000005300000000
#01658:00000000005300000000000000000000
#0165b:0053
#02055:00000063000000000000000000000000
#02052:0000006300000000
#02058:00000000000000000000000000000053
#03055:0000005300000000
#03058:53000013
#03052:0000000000130000
#05055:000000000000000000000000005300000000000000000000
#05052:00000023
#00758:00000000000000130000000000000000
#00457:00230000
#0045b:63
#05155:0000000000530053
#05152:00000063
#05157:00000000002300000000000000000000
#0515b:53
#00152:6353
#00156:00230000
#0025b:5363
#00257:00230000
#01052:0000006300000000
#0105b:0000005300000000
#01058:00000000000000000063000000000000
#01055:00000000000000000063000000000000
#0295b:5300001300000000
#02957:00000063000000000000000000000000
#0265b:53
#02652:0000005300000000
#0275a:00000000000000000000001400000000
#02757:0064
#04257:00230000
#0425b:63
#04652:13
#03955:00000000000000530000000000000000
#03952:0000000000000000000000000000000000000023000000000000000000000000
#0495b:13
#01755:00000000006300000000000000000000
#01752:0063
#0335b:5300005300004300
#03357:00000053000000000023000000000000
#03855:63000013
#03858:0000006300000000
#0385b:0000000000130000
#03756:00000053000000000000000000000000
#03752:6300001300000000
#03252:1400006300000000
#0345b:0000006300000000
#03452:63
#03555:0054
#03552:00000000000000000000001400000000
#00552:00630000000000000000000000000000
#00556:0000000000000000002300000000000000000000000000000000000000000000
#01452:13
#0003b0:1333
#000370:00530023
#001320:1333
#001360:00530023
#0023b0:1333
#002370:00530023
#0043b0:1323
#004370:00530000
#004320:00000000000000000000000000000013
#005320:00330000000000002300000000000000
#005360:0000000000000000005300000000000000000000000000000000000000000000
#0063b0:00001300003300000000003300330000
#006390:0000003300330033
#006370:00000000000000330033000000000023
#0083b0:00000000000000130000000023000000
#008380:00000000000000000033330000000000
#009320:00000000000000130000000023000000
#009350:00000000000000000033330000000000
#010320:0000001300002300
#010330:00000000000000330000000000000000
#010350:00000000000000000033330000000000
#0103b1:0000001300002300
#0103a1:00000000000000330000000000000000
#010381:00000000000000000033330000000000
#0113b1:00000000000000130000230000000000
#012321:0013000023000000
#012331:00000033000000330000000000000000
#012341:0000333300000000
#012361:00000000003300000000000000000000
#013321:00000013
#014321:23
#0143b1:0013000023000000
#0143a1:00000033000000330000000000000000
#014391:0000333300000000
#014371:00000000003300000000000000000000
#015351:0013000000000000
#015341:00000033000000000000000000000000
#015331:00330000
#015321:00000000002300000000000000000000
#015381:00000000000000130000000000000000
#0153b1:00000023
#016381:00000000001300000000000023000000
#0163b1:0033
#017351:00000000001300000000000023000000
#017321:0033
#018391:00000013005300530000000000000000
#018381:0000535323000000
#0193a1:1424000000000000
#019321:0000142400000000
#019361:0000000014240000
#0193a1:0000000000001424
#020351:00000013000000000000000000000000
#020321:0000003300000000
#020361:0000000000230000
#020381:00000000000000000000000000000013
#0213b1:0033000000000000
#021371:0023
#021321:00000000000000000000000000000014
#022341:54545424
#022331:00540054005400540054005400000000
#022321:0054005400540000
#0243b1:0000001300000000
#024381:0023
#025321:13000000003333000000000023000000
#025361:00003333000000000053000000000000
#0263b1:13
#026371:00000023000000000000000000000000
#026321:0000001300000000
#026361:0000000000230000
#027371:0014
#0273a1:00000000000000000000002400000000
#028351:1300002300000000
#028321:00000033000000000000000000000000
#0293b1:13000000003323000000000000000000
#029371:00003333000000000000000000000000
#030381:13
#0303b1:00000023000000000000000000000000
#030351:0000001300000000
#030321:0000000000230000
#0313b1:00000000000000130000000033000000
#031381:0000000000330023
#032321:0000001300000000
#032351:0023
#0333b1:13000000003333000000000023000000
#033371:00003333000000000053000000000000
#034321:13
#034361:00000023000000000000000000000000
#0343b1:0000001300000000
#034371:0000000000230000
#035351:0014
#035321:00000000000000000000002400000000
#036381:1300002300000000
#0363b1:00000033000000000000000000000000
#037321:13000000003323000000000000000000
#037361:00003333000000000000000000000000
#038351:13
#038321:00000023000000000000000000000000
#038381:0000001300000000
#0383b1:0000000000230000
#0393b1:13
#039381:0023000000000000
#039351:00000000000000130000000023000000
#039321:0000000000000000000000000000000000000053000000000000000000000000
#0403b1:1300002300000000
#040371:00000033000000000000000000000000
#041321:1300002300000000
#041361:00000033000000000000000000000000
#0423b1:1323
#042371:00530000
#043321:00000013000000000053000000000000
#043361:0000003300002300
#044381:16003626000000000000000000000000
#044321:00000000000000001600362600000000
#046381:00000013
#046391:00000000000000000000000000330000
#0463a1:0000000000000033
#0463b1:00000000000000000000000000000033
#0473b1:23
#047351:00000013
#047341:00000000000000000000000000330000
#047331:0000000000000033
#047321:00000000000000000000000000000033
#048321:23
#048381:00000013
#048391:00000000000000000000000000330000
#0483a1:0000000000000033
#0483b1:00000000000000000000000000000033
#0493b1:23
#050351:000000000000000000000000000000000000000000000000000013000000000000000000000000000000000000230000
#050321:000000000000000000000000000000000000000000000000000000003300330033003300330000330000330000000000
#0513b1:1323
#051391:000033000000000000330000000000000000000000000000
#051371:000000000000000033000000000000330000000000000000000000000000000000000000000000000000000000000000
#0513a1:00000000000000330000000000000000
#051351:0000000000130033
#051341:000000000000000033003333
#051331:000000000000000000000000000000000033003300000033
#051321:00000033
#052321:23
