This file was generated by Ched 2.7.0.0.
#TITLE ""
#ARTIST ""
#DESIGNER ""
#DIFFICULTY 0
#PLAYLEVEL
#SONGID ""
#WAVE ""
#WAVEOFFSET 0
#JACKET ""
#REQUEST "ticks_per_beat 480"
#00002: 4
#BPM01: 120
#00008: 01
#TIL00: ""
#HISPEED 00
#MEASUREHS 00
#00318:001616161616260000000000
#00312:1c1616161616260000140000
#00317:0000000000000014
#00313:0000000000000000000000000000000000000000000000000000000000000034
#00314:00000000000000000000000000000034
#00315:0000000000000000000000000000000000000000000000000000000000340000
#0081b:00000000131300000000000013000000
#00818:16
#00816:0013000000130000
#00819:000000000000000000000000000000000000000000000000000000000000000000000000000000000000230000000000001300000000000000000000000000000000000000000000000000000000000000000000000000000000000000000000
#0121a:14
#01215:13000013000016160000000000000000
#0121b:0000000000000000000013000000000013000000000000000013000000000000
#01217:00000000000000000000131300000013
#01212:00001300001300000000001300001300
#01218:00130000
#01210:41
#0151a:00000000140000000000002200000000
#01518:00000000000000001600000000220000
#01516:00000000000000230000160000000022
#01514:00000000002300000000000016000000
#01512:23000023000000000000000000001600
#01515:0013000000000000
#0151b:0000001300000000000000000000000000000000000000000000000000000000
#0151c:00000000000000000022000000000000
#01517:23
#01612:2313000000001313
#01617:0000001300000013
#01619:00000000000000000000000000000013
#01615:19000013000000000000000000000000
#01614:00000000001300000000000000000000
#0161c:0000000000000000000000000012000000000000000000000000000000000000
#0161f:11
#01817:13
#0181c:0012000012000000
#01818:00000012000012000012000012000000
#0181a:0000120000120000
#01816:00000000001200001200001200001200
#01814:00000000000000120000000000120000
#01812:13001200000000000000000000000012
#02312:00001400002400260000000000000000
#0231a:00001400002400000000000000000000
#02318:00000000000000260000000000000000
#02316:00240000
#0261b:13000000001313000000000013000000
#02612:00001313000000001300000000000000
#02617:0000001300000000000000000000000013000000220000000000000000000000
#02616:1300000000000000001300000000000000000000000000000000000000000000
#02615:00000000000000000000001600220000
#02613:0000000000000016
#02618:00000000000000000000000000000013
#02516:1300001300130013
#0251b:13000000000013000000130000000013
#02517:00000013000000001300000000000000
#02519:00000000000000000013000000000000
#02512:00000013000000001300000000000000
#02514:00000000000000000013000000000000
#02518:00000000001300000000000000000000
#02515:00130000
#02510:41
#02712:1300002425000000
#02715:00130000130000000000000000001500
#02718:0013000000000000
#02717:00000000000024000013001300000000
#02713:0000000000150000
#0271b:13000013001300002300000023000000
#02719:00000000000000000000000000130013
#02714:00000025
#02418:00000000000000000000130000130000
#02415:00001300000000000000130000130000
#02417:00000000001313000000000000000000
#0241b:00000013000000001300000000000000
#02412:2400001300000000
#02416:0013
#0241f:21
#02812:00001300000013001300000000130000
#02817:00000000000000000000000000130000
#0281b:13000013001300000000130000000000
#02816:2500001300130000
#03115:00001300001300000000000000001300
#03118:00000013000013000000000000130000
#0311a:00000000000000140014000000000000
#03112:23000000130000140000001400000013
#0311b:23130013
#03116:0000000000000000000000000000000000000000140000000012000000000000
#04018:26000013000000000000000000000000
#04012:13131c0000000013
#0401b:0013000013130013
#04016:0000002400001400
#04010:41
#04218:26000000000000000000000000000013
#04212:001c1400
#04215:0000000000000013
#04216:00000013000024000000140000000000
#0421a:00000014
#0421b:0013000000000000
#04318:00001300160000230000000000130000
#04317:00000000000000000000230000000013
#0431b:13002323
#04312:2613001300230000
#04315:0000000000001300000000000000002300000000000000000000000023000000
#04316:00000023
#0441a:1414140024000000
#04416:00000000001414140000000000141414
#04412:2400000014141400
#04515:00120012000000000000000000000000
#04517:0012001200000000
#04519:00000000001200120000000000000000
#04512:2400240026260000
#04518:0000000026260000
#0451a:24240000
#04916:14
#04915:0000000000130000000000001300000000000000000000001300000000000000
#04912:00000000140000130026001300002600
#04918:00001313001300260000132600000000
#0491b:00000000000000001300000000000032
#0491a:00140000
#04919:0000000000000032
#05012:26001300130000130000000000000000
#05018:000000130000260000000000000000000000000000000000000000001200000000001200000000130000000000000000
#05017:00000000130000130000000000000000
#0501a:0000000000121300
#05016:000000000000000000000000000000130000000000000000000000000000000012000000000000000000130000000000
#05014:00000000000000000000000000000013
#0501b:00000000001300000000000000000000
#0501c:000000000000000000000000001200000000000000000000
#05212:13000000130000240000000000130000
#0521b:00130013
#05219:0000001300130000
#05215:0013000000000000
#05216:00000024000000000000002400001300
#05217:0013
#05214:00000000002400000024000000000000
#05218:00240000000000000000000000240000
#0521a:00000000000000000000000000000024
#00612:14000000140000000000140000140000
#00616:00002400001400240014002400001400
#0061a:24000000000014000000000000000014
#02016:00000013000000001300000013130000
#02017:00000000000013000000000000000013
#0201b:1313
#02012:1600001300000000
#02018:0013000000000000
#0201a:00240024
#02112:00001300000000000000130000130000
#02116:00000000001300001300130013130013
#0211a:00240024
#03918:0000000013000000000000000000160000000016000000001600160016001600
#03912:13000000001600160000000000000000
#03915:0013001600000000
#0391b:13
#02918:0013000000130000
#02915:0013
#0291b:13130013
#02919:00000000000000000000000000130000
#02917:0000000000000013
#02912:0000001300000000
#00115:00000000000000000000001300001300
#00112:13000000000013000013000013000000
#00114:00130000
#00116:0013000000000000
#0011b:0013130000001300
#00118:13000000001300130000000000130000
#00212:13000000000000001313001300002400
#00216:0013000000000000
#0021b:0013130013000000
#00217:0000000000130000
#00215:00000000001300000000000013000000
#00218:00000000000000130000000000130000
#0021a:0000000000000024
#01018:00000000001300000000000000001600
#01017:1300000000000000000000000000000000130000000000000000000000000000
#01015:0000001300000000
#01012:1300000000240016
#01016:0000000013000000000000000000240000000000240000130000000000000000
#0101a:0000000000000000000000000000240000130000000000000000000000000000
#01013:0000000000000000000000000000000000000000000000130000000000000000
#01117:00000000000013130000000000002300
#01112:00003300000013130000000000000016
#01118:00000000000000000000001600000000
#01115:00000000000000000000000000160000
#0111b:0000000000230000
#01119:00000023
#01317:000000000000000000000000000000000000000000000000000000130000000000000000000000000000000000000000000000000000000000000000000000000000000000000000130000000000000000000000000000001300000000000000
#01314:0000000000140000
#0131b:130000000000130000130000000000000000000000000000000000000000000000000000000000001300000000000000
#01316:1314
#01312:0000001300000000000013000000000000000000000000001400000000000000
#01315:0000001300000000
#01319:0000000000000013
#01412:1400000000000000000013000000000013000000000000000013000000000000
#01416:00000000000000000000131300000013
#0141b:00001300001300000000001300001300
#01415:00000000130016160000000000000000
#01418:00000013000000000000000000000000
#00415:00001300000000000013000000230000
#00412:24000000131300130000002300000000
#0041a:1400001400000014000000140000001400000014000000000000000000000000
#00418:0014000000140000001400000014000000140000001400000000000000002300
#00419:00141414141414141414140000000000
#0041b:0000000000001313
#00410:41
#00515:13
#00514:0000001400000014000000140000001400000000000013000000000000000000
#00516:00000000000000000000000000130000
#00518:0013000000000000
#0051b:00130000131300130000000000000000
#00512:0000140000140000001400000014000000001300000000000000000000001300
#00513:00001414141414140000000000000000
#00717:00120012000000000000000000000000
#00719:0013000000000000130000000000000000000000000000000000000000000000
#0071c:0000001200000000000012000000000000000000000000000000000000000000
#00718:00000000000000000000000016161616
#00712:240024002400242c0000000000000000
#04618:1313000000130000
#04616:00000012000000001300000000000000
#04617:00000000001300000000000000001300
#04615:00000000000012000000001300130000
#04614:00000000000000000012000000000013
#04613:00000012
#04612:16
#0461b:00130000000000000000000000000000
#0461a:00130000
#04619:00000000000000130000000000000000
#04610:41
#0471c:12
#04716:00001414000000000000000000000000
#04712:12000000001200000000000000000000
#0471a:0000001400000000
#0471b:00000000000000000000000000130000
#04718:0000000000000013
#04715:00000000000000000000000000000013
#04717:00000000001300000000000000000000
#04719:00130000000000000000000000000000
#04714:00130000
#04812:13
#04816:00000000000000000014141414141414
#0511a:140000000000000000000000000000000000001200000000
#05112:001400000000000000000012
#05116:000000001400000000000000000000000000120000000012
#0511c:000000000000000000000000000000120012000000000000
#05118:000000000000000000000000000000001200000000120000
#05114:000000000012
#05113:00000000001300000000000000000000
#05117:00000000000000130000000000000000
#05119:0013
#05115:0000001300000000
#05312:13000000000000260000000000000000
#05318:220000002200000022000000220000002200000000260000000000000000000000000000000000000000000000000000
#0531b:000000220022002200220000000000000000000000000000
#04115:00000013000000000000000000000000
#04112:26131c0013130013
#04116:0000002400001400
#0411b:1313000000000013
#00912:000000000000000000000000130000130000000000250000001500000000000000000000130000000000000000000000
#00915:00000000000000000000130000000013
#00917:0013000000000000
#00918:0000000000000013
#00914:000000000000000000000000000000000000000000000015000000000000000000000000000000000000000000000000
#00015:13000000001300130000000000130013
#0001b:13000000000013000013000013000000
#00019:00130000
#00017:0013000000000000
#00017:0013000000000000
#00012:0013130000001300
#00018:00000000000000000000001300001300
#01915:1313000000000000
#01918:0000141400001616
#01913:0000000015150000
#0221b:00131300
#02218:00001300001300130000130025000000
#02212:00000000130000000000001300000015
#02215:00000013000013000013000000000000
#02216:00000000000000000000000000150000
#02214:0000000000000015
#03012:0000001300000000000000001300000000000000130000001300000000000000
#03015:00000000001300000000000000000000
#03018:00130000
#03017:0000001300000000000000001300000000000000000000000000000000000000
#0301b:1313
#03016:13
#03412:13000000001313000000000013000000
#0341b:00001313000000001300000000000000
#03416:0000001300000000000000000000000013000000000000000000000000000000
#03417:1300000000000000001300000000000000000000220000000000000016000000
#03415:00000000000000000000001600000013
#03419:00000000000000000000000000220000
#03317:1300001300130013
#03312:13000000000013000000130000000013
#03316:00000013000000001300000000000000
#03314:00000000000000000013000000000000
#0331b:00000013000000001300000000000000
#03319:00000000000000000013000000000000
#03315:00000000001300000000000000000000
#03318:00130000
#0351b:13
#03518:00130000130000000000150000000000
#03515:0013002400000000
#03516:00000000000000000013001300001500
#03512:13000013001300002300000023000000
#03514:00000000000000000000000000130013
#03519:0025
#03517:00000025
#0351a:0000002400000000
#03215:00000000000000000000130000130000
#03218:00001300000000000000130000130000
#03216:00000000001313000000000000000000
#03212:00000013000000001300000000000000
#0321b:0000001300000000
#03217:0013
#0321a:24
#03210:41
#0361b:00001300000013001300000000130000
#03616:00000000000000000000000000130000
#03612:13000013001300000000130000000000
#03617:0000001300130000
#03615:25
#03715:0013000000130000
#03718:0013
#03712:13130013
#03714:00000000000000000000000000130000
#03716:0000000000000013
#0371b:0000001300000000
#0171b:1313000000001313
#01716:0000001300000013
#01714:00000000000000000000000000000013
#01718:00000013000000000000000000000000
#01719:00000000001300000000000000000000
#01712:1900000000000000000000000012000000000000000000000000000000000000
#03818:00000000001300000000000000000000
#03815:00130000
#03817:13
#03812:1313
#0381b:0000001300000000000000001300000000000000130000001300000000000000
#03816:0000001300000000000000001300000000000000000000000000000000000000
#0125a:14
#0125b:0000000000000000000000000000000000000000000000000023000000000000
#01257:00000000000000000000006300000000
#02652:00000053000000000000000000000000
#0265b:5300005300000000
#02657:0000002300000000000000000000000023000000220000000000000000000000
#02656:0000000000000000002300000000000000000000000000000000000000000000
#02655:00000000000000000000005600220000
#02653:0000000000000056
#02754:00000035
#02752:0035
#02856:3500006300630000
#0285b:5300000000630000
#03152:00000000000000140000000000000000
#0315a:00000000000000140000000000000000
#04452:54000018000000001400000000000000
#04456:00000000000000000000001800000000
#0445a:1454
#04956:14
#00752:000000000000001c0000000000000000
#0155a:00140000
#0155b:0000002300000000000000000000000000000000000000000000000000000000
#01557:63
#02452:1400001300000000
#02457:0000005300000000
#0245b:00000013000000002300000000000000
#02458:0000000000530000
#02455:0000000000530000
#02056:00000063000000002300000000630000
#02057:00000000000063000000000000000063
#0205b:0023
#02052:3600006300000000
#02152:0053000000000000
#02156:00000000002300000000000000630063
#04358:00160000
#05052:16
#05058:0016000000000000
#0025b:4353
#00252:63
#00256:0023000000000000
#00257:0000000000230000
#04058:16
#04056:00000014
#00858:16
#00859:000000000000000000000000000000000000000000000000000000000000000000000000000000000000000000000000002300000000000000000000000000000000000000000000000000000000000000000000000000000000000000000000
#01157:00000000000000530000000000000000
#01152:00000000000000530000000000000000
#01357:000000000000000000000000000000000000000000000000000000230000000000000000000000000000000000000000000000000000000000000000000000000000000000000000530000000000000000000000000000002300000000000000
#0135b:000000000000000000530000000000000000000000000000000000000000000000000000000000002300000000000000
#01352:0000002300000000000000000000000000000000000000000000000000000000
#01356:53
#01359:0000000000000053
#01452:1400000000000000000000000000000000000000000000000023000000000000
#01456:00000000000000000000005300000000
#00452:34
#00459:00545454545454545454540000000000
#0045a:5400002400000024000000240000002400000024000000000000000000000000
#00458:0024000000240000002400000024000000240000002400000000000000000000
#00357:0000000000000024
#00352:00000064
#00552:0000640000240000002400000024000000000000000000000000000000000000
#00554:0000002400000024000000240000002400000000000000000000000000000000
#00553:00006464646464640000000000000000
#04652:16
#04552:0000000046360000
#04558:0000000036460000
#04156:00000014
#04256:00000014
#00952:000000000000000000000000000000000000000000550000005500000000000000000000000000000000000000000000
#00954:000000000000000000000000000000000000000000000055000000000000000000000000000000000000000000000000
#01056:0000000053000000000000000000000000000000000000230000000000000000
#01057:5300000000000000000000000000000000230000000000000000000000000000
#0105a:0000000000000000000000000000000000230000000000000000000000000000
#01053:0000000000000000000000000000000000000000000000230000000000000000
#00152:6300002300000000
#00154:00530000
#00156:0023000000000000
#0005b:5300002300000000
#00059:00630000
#00057:0023000000000000
#03952:63000000000000560000000000000000
#03958:0000000063000000000000000000000000000026000000000000000000000000
#03955:0053000000000000
#0395b:53
#05358:00000000000000460000000000000000
#05352:00000000000000360000000000000000
#03452:6300006300000000
#0345b:00000063000000000000000000000000
#03456:0000002300000000000000000000000023000000000000000000000000000000
#03457:0000000000000000002300000000000000000000220000000000000066000000
#03455:00000000000000000000006600000000
#03459:00000000000000000000000000220000
#03256:0000006300000000
#03252:00000013000000002300000000000000
#0325b:0000001300000000
#03255:0000000000630000
#03258:0000000000630000
#0325a:14
#03652:6300000000530000
#03657:0000005300530000
#03655:45
#03559:0045
#03557:00000045
#01655:59
#0165c:0000000000000000000000000022000000000000000000000000000000000000
#01652:13
#01752:6900000000000000000000000022000000000000000000000000000000000000
#0255b:5300006300230000
#02557:00002333
#02559:00000000000000000063000000000000
#02556:5300006300230000
#02552:00002333
#02554:00000000000000000063000000000000
#03352:6300005300230000
#03356:00002343
#03354:00000000000000000053000000000000
#03357:6300005300230000
#0335b:00002343
#03359:00000000000000000053000000000000
#0305b:6323
#03057:0000002300000000000000005300000000000000000000004300000000000000
#03052:0000002300000000000000005300000000000000330000003300000000000000
#03056:63
#03857:53
#03852:5323
#0385b:0000002300000000000000006300000000000000430000004300000000000000
#03856:0000002300000000000000006300000000000000000000003300000000000000
#0003b0:1300005300000000
#000370:0053000023000000
#000390:00530000
#000321:0013
#000351:00000000000000000000002300000000
#001321:1300005300000000
#001361:0053000023000000
#001341:00530000
#0013b0:0013
#001380:00000000000000000000002300000000
#001370:00000000000000000000000000000013
#001390:0000000000000000000000000000000000000000000000000000000000000033
#0023b0:23
#002321:13230000
#002361:0053000000000000
#0023b1:00001323
#002371:0000000000530000
#003321:00000014
#003371:0000000000000054
#003351:0000000000000000000000000000000000000000000000000000000000340000
#003341:00000000000000000000000000000034
#003331:0000000000000000000000000000000000000000000000000000000000000034
#004321:24
#0043a0:1400005400000054000000540000005400000054000024000000000000000000
#004380:0054000000540000005400000054000000540000005400000000000000000000
#004390:00545454545454545454540000000000
#005320:0000140000540000005400000054000024000000000000000000000000000000
#005340:0000005400000054000000540000005400000000000000000000000000000000
#005330:00005454545454540000000000000000
#005371:00000000000000001323000000000000
#005391:00000000000000000000132300000000
#0053b1:00000000000000000000000013230000
#005371:00000000000000000000000000001323
#0063a1:0014240000000000
#006321:00000000000000140024000000000000
#0063a1:00000000000000000000001400240000
#008321:13000023
#008390:000000000000000000000000000000000000000000000000000000000000000000000000000000000000000000000000000000000000000000000000000000000000000000000000000000000000000000000000000000000000000000000000000000000000000000000000000000000000000000000000000000000000000000000000000000000000000000000000000000000000000000000000000000000000000000000000130000000000000000000000000000000000000000000000000000005300000000000000000000530000000000000000000000000000000000000000000000000000000000000000000000000000000000000000000000000000000000000000000000000000000000000000000000000000000000000000000000000000000000000000000000000000000000000000000000000000000000000000000000000000000000000000000000000000000000000000000000000000000000000000000000000000000000000000000000000000000000000000
#0083a0:0000000000000000000000000000000000000000000000000000000000000000000000000000000000000000000000000000000000000000000000000000000000000051000000002100000000000000000000000000000000000000000000000000000000000000000000000000000000000000000000000000000000000000
#008321:0000000000000016
#009321:26
#0093b0:13000023
#009321:000000000000000000000000000000000000000000150000005500000000000000000000000000000000000000000000
#009341:000000000000000000000000000000000000000000000055000000250000000000000000000000000000000000000000
#010370:13
#0103b0:00230000
#010361:0013000000000000
#010321:00230000
#010361:000000000000000000000000000000000000000000000000000000000000000000000000000000000000000000000000000000000000000000000000000000000000000000000000000000000000000000000000000000000000000000000000000000000000000000000000000000000000000000000000000000000000000000000000000000000000000000000000000000000000000000000000000000000000000000000000000000000000000000000000000000000000000000000000000000000000000000000000000000000000000000000000000000000000000000000000000000000000000000000000000000000000000000000000000000000000000000000000000000000000000000000000000000000000000000000000000000000000000000000000000000000000000000000000000000000000000000000000000000000000000000000000000000000000000000000000000000000000000000000000000000000000000000000000000000000000000000000000000000000000000000000000000000000000000000000000000000000000000000000000000000000000000000000000000000000000000000000000000000000000000000000000000000000000000000000000000000000000000000000000000000000000000000000000000000000000000000000000000000000000000000000000000000000000000000000000000000000000000000000000000000000000000000000000000000000000000000000000000000000000000000000000000000000000000000000000000000000000000000000000000000000000000000000000000000000000000000000000000000000000000000000000000000000000000000000000000000000000000000000000000000000000000000000000000000000000000000000000000000000000000000000000000000000000000000000000000000000000000000000000000000000000000000000000000000000000000000000000000000000000000000000000000000000000000000000000000000000000000000000000000000000000000000000000000000000000000000000000000000000000000000000000000000000000000000000000000000000000000000000000140000000000000000000000000000000000000000000000000000000000000000000000000000000000000000000000000000000000000000000000000000000000000000000000000000000000000000000000000000000000000000000000000000000000000000000000000000000000000000000000000000000000000000000000000000000000000000000000000000000000000000000000000000000000000000000000000000000000000000000054000000000000000000000000000000000000000000000000000000000000000000000000000000000000000000000000000000000000000000000000000000000000000000000000000000000000000000000000000000000000000000000000000000000000000000000000000000000000000000000000000000000000000000000000000000000000000000000000000000000000000000000000000000000000000000000000000000000000000000000000000000000000000000000000000000000000000000000000000000000000000000000000000000000000000000000000000000000000000000000000000000000000000000000000000000000000000000000000000000000000000000000000000000000000000000000000000000000000000000000000000000000000000000000000000000000000000000000000000000000000000000000000000000000000000000000000000000000000000000000000000000000000000000000000000000000000000000000000000000000000000000000000000000000000000000000000000000000000000000000000000000000000000000000000000000000000000000000000000000000000000000000000000000000000000000000000000000000000000000000000000000000000000000000000000000000000000000000000000000000000000000000000000000000000000000000000000000000000000000000000000000000000000000000000000000000000000000000000000000000000000000000000000000000000000000000000000000000000000000000000000000000000000000000000000000000000000000000000000000000000000000000000000000000000000000000000000000000000000000000000000000000000000000000000000000000000000000000000000000000000000000000000000000000000000000000000000000000000000000000000000000000000000000000000000000000000000000000000000000000000000000000000000000000000000000000000000000000000000000000000000000000000000000000000000000000000000000000000000000000000000000000000000000000000000000000000000000000000000000000000000000000000000000000000000000000000000000000000000000000000000000000000000000000000000000000000000000000000000000000000
#010371:0000000000000000000000000000000000530000000000000000000000000000
#010381:00000000000000000022000000000000
#0103a0:000000000000000000000000000000000000000000000000000000000000000000000000000000000000000000000000000000000000000000000000000000000000000000000000000000000000000000000000000000000000000000000000000000000000000000000000000000000000000000000000000000000000000000000000000000000000000000000000000000000000000000000000000000000000000000000000000000000000000000000000000000000000000000000000000000000000000000000000000000000000000000000000000000000000000000000000000000000000000000000000000000000000000000000000000000000000000000000000000000000000000000000000000000000000000000000000000000000000000000000000000000000000000000000000000000000000000000000000000000000000000000000000000000000000000000000000000000000000000000000000000000000000000000000000000000000000000000000000000000000000000000000000000000000000000000000000000000000000000000000000000000000000000000000000000000000000000000000000000000000000000000000000000000000000000000000000000000000000000000000000000000000000000000000000000000000000000000000000000000000000000000000000000000000000000000000000000000000000000000000000000000000000000000000000000000000000000000000000000000000000000000000000000000000000000000000000000000000000000000000000000000000000000000000000000000000000000000000000000000000000000000000000000000000000000000000000000000000000000000000000000000000000000000000000000000000000000000000000000000000000000000000000000000000000000000000000000000000000000000000000000000000000000000000000000000000000000000000000000000000000000000000000000000000000000000000000000000000000000000000000000000000000000000000000000000000000000000000000000000000000000000000000000000000000000000000000000000000000000000000000140000000000000000000000000000000000000000000000000000000000000000000000000000000000000000000000000000000000000000000000000000000000000000000000000000000000000000000000000000000000000000000000000000000000000000000000000000000000000000000000000000000000000000000000000000000000000000000000000000000000000000000000000000000000000000000000000000000000000000000054530000000000000000000000000000000000000000000000000000000000000000000000000000000000000000000000000000000000000000000000220000000000000000000000000000000000000000000000000000000000000000000000000000000000000000000000000000000000000000000000000000000000000000000000000000000000000000000000000000000000000000000000000000000000000000000000000000000000000000000000000000000000000000000000000000000000000000000000000000000000000000000000000000000000000000000000000000000000000000000000000000000000000000000000000000000000000000000000000000000000000000000000000000000000000000000000000000000000000000000000000000000000000000000000000000000000000000000000000000000000000000000000000000000000000000000000000000000000000000000000000000000000000000000000000000000000000000000000000000000000000000000000000000000000000000000000000000000000000000000000000000000000000000000000000000000000000000000000000000000000000000000000000000000000000000000000000000000000000000000000000000000000000000000000000000000000000000000000000000000000000000000000000000000000000000000000000000000000000000000000000000000000000000000000000000000000000000000000000000000000000000000000000000000000000000000000000000000000000000000000000000000000000000000000000000000000000000000000000000000000000000000000000000000000000000000000000000000000000000000000000000000000000000000000000000000000000000000000000000000000000000000000000000000000000000000000000000000000000000000000000000000000000000000000000000000000000000000000000000000000000000000000000000000000000000000000000000000000000000000000000000000000000000000000000000000000000000000000000000000000000000000000000000000000000000000000000000000000000000000000000000000000000000000000000000000000000000000000000000000000000000000000000000000000000000000000000000000000000000000000
#010360:000000000000000000000000000000000000000000000000000000000000000000000000000000000000000000000000000000000000000000000000000000000000000000000000000000000000000000000000000000000000000000000000000000000000000000000000000000000000000000000000000000000000000000000000000000000000000000000000000000000000000000000000000000000000000000000000000000000000000000000000000000000000000000000000000000000000000000000000000000000000000000000000000000000000000000000000000000000000000000000000000000000000000000000000000000000000000000000000000000000000000000000000000000000000000000000000000000000000000000000000000000000000000000000000000000000000000000000000000000000000000000000000000000000000000000000000000000000000000000000000000000000000000000000000000000000000000000000000000000000000000000000000000000000000000000000000000000000000000000000000000000000000000000000000000000000000000000000000000000000000000000000000000000000000000000000000000000000000000000000000000000000000000000000000000000000000000000000000000000000000000000000000000000000000000000000000000000000000000000000000000000000000000000000000000000000000000000000000000000000000000000000000000000000000000000000000000000000000000000000000000000000000000000000000000000000000000000000000000000000000000000000000000000000000000000000000000000000000000000000000000000000000000000000000000000000000000000000000000000000000000000000000000000000000000000000000000000000000000000000000000000000000000000000000000000000000000000000000000000000000000000000000000000000000000000000000000000000000000000000000000000000000000000000000000000000000000000000000000000000000000000000000000000000000000000000000000000000000000000000000000000000000000000000000000000000000000000000000000000000000000000000000000000000000000000000000000000000000000000000000000000000000000000000000000000000000000000000000000000000000000000000000000000000000000000000000000000000000000000000000000000000000000000000000000000000000000000000000000000000000000000000000000000000000000000000000000000000000000000000000000000000000000000000000000000000000000000000000000000000000000000000000000000000000000000000000000000000000000000000000000000000000000000000000000000000000000000000000000000000000000000000000000000000000000000000000000000000000000000000000000000000000000000000000000000000000000000000000000000000000000000000000000000000000000000000000000000000000000000000000140000000000000000000000000000000000000000000000000000000000000000000000000000000000000000000000000000000000000000000000000000000000000000000000000000000000000000000000000000000000000000000000000000000000000000000000000000000000000000000000000000000000000000000000000000000000000000000000000000000000000000000000000000000000000000000000000000000000000000000054530000000000000000000000000000000000000000000000000000000000000000000000000000000000000000000000000000000000000000000000220000000000000000000000000000000000000000000000000000000000000000000000000000000000000000000000000000000000000000000000000000000000000000000000000000000000000000000000000000000000000000000000000000000000000000000000000000000000000000000000000000000000000000000000000000000000000000000000000000000000000000000000000000000000000000000000000000000000000000000000000000000000000000000000000000000000000000000000000000000000000000000000000000000000000000000000000000000000000000000000000000000000000000000000000000000000000000000000000000000000000000000000000000000000000000000000000000000000000000000000000000000000000000000000000000000000000000000000000000000000000000000000000000000000000000000000000000000000000000000000000000000000000000000000000000000000000000000000000000000000000000000000000000000000000000000000000000000000000000000000000000000000000000000000000000000000000000000000000000000000000000000000000000000000000000000000000000000000000000000000
#010321:000000000000000000000000000000000000000000000000000000000000000000000000000000000000000000000000000000000000000000000000000000000000000000000000000000000000000000000000000000000000000000000000000000000000000000000000000000000000000000000000000000000000000000000000000000000000000000000000000000000000000000000000000000000000000000000000000000000000000000000000000000000000000000000000000000000000000000000000000000000000000000000000000000000000000000000000000000000000000000000000000000000000000000000000000000000000000000000000000000000000000000000000000000000000000000000000000000000000000000000000000000000000000000000000000000000000000000000000000000000000000000000000000000000000000000000000000000000000000000000000000000000000000000000000000000000000000000000000000000000000000000000000000000000000000000000000000000000000000000000000000000000000000000000000000000000000000000000000000000000000000000000000000000000000000000000000000000000000000000000000000000000000000000000000000000000000000000000000000000000000000000000000000000000000000000000000000000000000000000000000000000000000000000000000000000000000000000000000000000000000000000000000000000000000000000000000000000000000000000000000000000000000000000000000000000000000000000000000000000000000000000000000000000000000000000000000000000000000000000000000000000000000000000000000000000000000000000000000000000000000000000000000000000000000000000000000000000000000000000000000000000000000000000000000000000000000000000000000000000000000000000000000000000000000000000000000000000000000000000000000000000000000000000000000000000000000000000000000000000000000000000000000000000000000000000000000000000000000000000000000000000000000000000000000000000000000000000000000000000000000000000000000000000000000000000000000000000000000000000000000000000000000000000000000000000000000000000000000000000000000000000000000000000000000000000000000000000000000000000000000000000000000000000000000000000000000000000000000000000000000000000000000000000000000000000000000000000000000000000000000000000000000000000000000000000000000000000000000000000000000000000000000000000000000000000000000000000000000000000000000000000000000000000000000000000000000000000000000000000000000000000000000000000000000000000000000000000000000000000000000000000000000000000000000000000000000000000000000000000000000000000000000000000000000000000000000000000000000000000000000140000000000000000000000000000000000000000000000000000000000000000000000000000000000000000000000000000000000000000000000000000000000000000000000000000000000000000000000000000000000000000000000000000000000000000000000000000000000000000000000000000000000000000000000000000000000000000000000000000000000000000000000000000000000000000000000000000000000000000000054000000000000000000000000000000000000000000000000000000000000000000000000000000000000000000000000000000000000000000000000000000000000000000000000000000000000000000000000000000000000000000000000000000000000000000000000000000000000000000000000000000000000000000000000000000000000000000000000000000000000000000000000000000000000000000000000000000000000000000000000000000000000000000000000000000000000000000000000000000000000000000000000000000000000000000000000000000000000000000000000000000000000000000000000000000000000000000000000000000000000000000000000000000000000000000000000000000000000000000000000000000000000000000000000000000000000000000000000000000000000000000000000000000000000000000000000000000000000000000000000000000000000000000000000000000000000000000000000000000000000000000000000000000000000000000000000000000000000000000000000000000000000000000000000000000000000000000000000000000000000000000000000000000000000000000000000000000000000000000000000000000000000000000000000000000000000000000000000000000000000000000000000000000000000000000000000000000000000000000000000
#010331:0000000000000000000000000000000000000000000000530000000000000000
#010341:00000022
#0113b1:13
#011321:00230000
#011320:1333000000000000
#0113b0:00230000
#011370:00000000000000130000000000000000
#0113b0:00000000000000000023000000000000
#011321:00000000000000130000000000000000
#011361:00000000000000000023000000000000
#012321:0000000013230000
#012371:00000000000000000000001300002300
#0123b1:0000000000000000000000000000000000000000000000000053000000000000
#013361:13000023000000000000000000000000
#013321:0000005300000000000000000000000000000000000000000000000000000000
#0133b0:00000013000023000000000000000000
#013370:0000000000000000005300000000000000000000000000000000000000000000
#0133b0:0013
#013390:00000000000000000023000000000000
#013390:0000000000130000
#013370:00000000000000000000002300000000
#013370:000000000000000000130053
#0133b0:000000000053
#013390:0000000000000053
#0143b0:23
#0143b0:0000000013230000
#014360:00000000000000000000001300002300
#014320:0000000000000000000000000000000000000000000000000053000000000000
#015370:13000023000000000000000000000000
#0153b0:0000005300000000000000000000000000000000000000000000000000000000
#016350:19000029
#0163c0:0000000000000000000000520052000000000000000000000000000000000000
#016371:0013
#016321:0000000000230000
#017320:1900000000000000000000520052000000000000000000002900000000000000
#017361:0013
#0173b1:0000000000230000
#019380:1323000000000000
#019340:0000142400000000
#019380:0000000015250000
#019320:0000000000001626
#020360:00000013000000005300000000000000
#020320:0000003300230000
#020371:0000001300230000
#0203b1:0053
#020361:00000000000000000000000000130000
#020321:00000000000000000000000000000023
#020370:00000000000000000000000000000013
#0213b0:0023000000000000
#021321:0013000023000000
#021361:00000000005300000000000000000000
#021361:00000000000000000000000000130000
#0213b1:00000000000000000000000000000023
#021360:00000000000000000000000000000013
#022320:0023000000000000
#0243b0:13
#024380:00532300000000000000000000000000
#024350:00000013000000000000000000000000
#024320:00000000532300000000000000000000
#024370:0000001300000000
#0243b0:00005323
#024380:0000000000330000
#024351:0000000000130000
#024321:00000023
#025361:13
#025321:0023000000000000
#0253b0:13
#025370:0023000000000000
#0253b0:0000001300530000
#025370:00005323
#025390:00000000000000000053000000000000
#025361:0000001300530000
#025321:00005323
#025341:00000000000000000053000000000000
#0263b1:13000023000000000000000000000000
#026371:0000005300000000000000000000000000000000000000000000000000000000
#026320:00000013000023000000000000000000
#026360:0000000000000000005300000000000000000000000000000000000000000000
#0263b1:0000001300230000
#026371:0053
#026370:0000000000122200
#026350:00000000000000000000005600000000
#026350:00000000000000000000000000120022
#026330:0000000000000056
#0283b0:13
#028360:0023000000000000
#028360:00000013002300000000000000000000
#028360:0000001300000000
#0283b0:0023
#028360:0000000000130000
#028320:00000023
#0283b1:0000000000130000
#028371:00000023
#029321:13
#029351:0023000000000000
#029351:00000013000000000000000000000000
#029381:00000000002300000000000000000000
#029381:0000001300000000
#0293b1:0023
#029321:0000000000130023
#029361:00000033
#029341:00000000000000000000000000330000
#0303b1:13000023000000000000000000000000
#030371:0000005300000000000000000000000000000000000000000000000000000000
#030360:13000023000000000000000000000000
#030320:0000005300000000000000000000000000000000000000000000000000000000
#030370:0000001300332300
#0303b0:0053
#030321:0000001300000000
#030361:0023
#032320:13
#032350:00532300000000000000000000000000
#032380:00000013000000000000000000000000
#0323b0:00000000532300000000000000000000
#032360:0000001300000000
#032320:00005323
#032350:0000000000330000
#032381:0000000000130000
#0323b1:00000023
#033371:13
#0333b1:0023000000000000
#033320:13
#033360:0023000000000000
#033320:0000001300530000
#033360:00005323
#033340:00000000000000000053000000000000
#033371:0000001300530000
#0333b1:00005323
#033391:00000000000000000053000000000000
#034321:13000023000000000000000000000000
#034361:0000005300000000000000000000000000000000000000000000000000000000
#0343b0:00000013000023000000000000000000
#034370:0000000000000000005300000000000000000000000000000000000000000000
#034321:0000001300230000
#034361:0053
#034370:0000000000122200
#034350:00000000000000000000005600000000
#034390:00000000000000000000000000120022
#034370:0000000000000056
#036320:13
#036370:0023000000000000
#036370:00000013002300000000000000000000
#036370:0000001300000000
#036320:0023
#036370:0000000000130000
#0363b0:00000023
#036321:0000000000130000
#036361:00000023
#0373b1:13
#037381:0023000000000000
#037381:00000013000000000000000000000000
#037351:00000000002300000000000000000000
#037351:0000001300000000
#037321:0023
#0373b1:0000000000130023
#037371:00000033
#037391:00000000000000000000000000330000
#038321:13000023000000000000000000000000
#038361:0000005300000000000000000000000000000000000000000000000000000000
#038370:13000023000000000000000000000000
#0383b0:0000005300000000000000000000000000000000000000000000000000000000
#038360:0000001300332300
#038320:0053
#0383b1:0000001300000000
#038371:0023
#039320:13
#039350:00230000000000000000000000000000
#0393b1:13
#039381:00230000000000000000000000000000
#039381:0013000000000000
#0393b1:00000023000000000000000000000000
#039350:0013000000000000
#039320:00000023000000000000000000000000
#039320:00000000000000160000000026000000
#039380:0000000000000000000000000000000000000056000000000000000000000000
#040320:0000001300000000
#040360:0023
#040360:0000000000130000
#040320:00000023
#0413b0:0000001300000000
#041370:0023
#041370:0000000000130000
#0413b0:00000023
#042320:13
#042360:0023000000000000
#0423a0:0000001400000000
#042360:0024
#042320:0000000000140000
#042360:00000024
#044320:14000028000000000000000000000000
#0443a0:0014
#044360:00000000000000000000002800000000
#047320:00000000000000160026000000000000
#047381:00000000000000000016002600000000
#047320:00000000000000000000001600260000
#048360:1424000000000000
#048321:00001424000000000000000000000000
#048360:00000014000000000000000000000000
#0483a0:00000000002400000000000000000000
#048361:00000000001400000000000000000000
#048321:00000000000000240000000000000000
#048360:00000000000000140000000000000000
#0483a0:00000000000000000024000000000000
#048320:00000000000000000000142400000000
#0483a0:00000000000000000000000014240000
#048320:00000000000000000000000000001424
#049370:00000000000000000000000000120000
#049390:0000000000000032
#0493b0:00000000000000000000000000000032
#0503c0:22
