This file was generated by Ched 2.7.0.0.
#TITLE ""
#ARTIST ""
#DESIGNER ""
#DIFFICULTY 0
#PLAYLEVEL
#SONGID ""
#WAVE ""
#WAVEOFFSET 0
#JACKET ""
#REQUEST "ticks_per_beat 480"
#00002: 4
#BPM01: 120
#00008: 01
#TIL00: ""
#HISPEED 00
#MEASUREHS 00
#0001a:14001414
#00014:00140000
#0041a:14
#00414:00140000
#00418:00001414
#00410:41
#00712:1626
#00718:00160000
#0081a:1414
#00814:00140014
#0101a:14140000
#01014:00001414
#01118:14140000
#01112:00001414
#0161a:14
#01614:00140000
#01618:0014
#0161f:11
#01818:1414
#01814:00140014
#0201a:14
#02014:00140000
#02018:0014
#02012:00000014
#02414:00140000
#02418:0014
#02412:00000014
#0241a:24
#0241f:21
#04012:14
#04010:41
#04414:14
#04418:00140000
#04412:0014
#0441a:00000014
#04514:14
#04518:00140000
#04512:0024
#0451a:0024
#0461a:14
#04612:00140000
#04618:00001414
#04610:41
#0501a:14140000
#05014:00001414
#00112:14001414
#00118:00140000
#0021a:14001414
#00214:00140000
#00512:14
#00518:00140000
#00514:00001414
#0061a:14
#00614:00140000
#00618:00001414
#00918:1414
#00912:00140014
#01712:14
#01718:00140000
#01714:0014
#0211a:14
#02114:00140000
#02118:0014
#02112:00000014
#0221a:14
#02518:14
#02514:00140000
#0251a:0014
#02510:41
#02612:1414
#02618:00140014
#02714:14141400
#02718:0014001400000000
#0271a:00000014
#02818:00140000
#02814:0014
#0281a:00000014
#02812:24
#02914:14
#02918:00140000
#02912:0014
#0301a:1414
#03014:00140014
#03118:14140000
#03114:0014000014000000
#03112:00000014
#0311a:00000014
#03212:00140000
#03218:0014
#03214:00000014
#0321a:24
#03210:41
#0331a:14
#03312:00140000
#03318:0014
#03412:14
#03418:00140000
#03414:0014
#0341a:00000014
#03512:14141400
#03518:0014001400000000
#0351a:00000014
#0361a:00140000
#03614:0014
#03618:00000014
#03612:24
#03712:14
#0371a:00140000
#03714:0014
#0381a:14
#03814:00140000
#03818:0014
#03812:00000014
#0391a:14
#03918:00003434003400000000000000000000
#0411a:14
#04214:14
#04318:14
#04712:14
#0471a:00140000
#04714:00001414
#0481a:14
#04814:0000140000140000
#04818:00001414
#04912:14
#04918:0000140000140000
#04914:00001414
#05118:14140000
#05112:00001414
#05218:14140000
#05214:0014000000000000
#05212:00001414
#0521a:0000000000140000
#01218:00343400
#01210:41
#01314:00343400
#0141a:00343400
#01512:00343400
#00353:0014
#02258:00000014
#0225a:54
#0395a:54
#03958:00000014
#04052:54
#0415a:64
#04254:64
#04358:54
#05358:00000000000000140000000000000000
#003330:143434343434240000000000
#0123a0:14
#012380:00343424
#013320:14
#013340:00343424
#014380:14
#0143a0:00343424
#015340:14
#015320:00343424
#0193a0:14
#019380:00240000
#019320:0014
#019340:00000024
#0223a0:14
#022380:00000024
#023340:14003400343400340000000024000000
#0393a0:14
#039380:00003434003400340000000024000000
#040320:14
#040340:00000024
#0413a0:14
#041380:00000024
#042340:14
#042320:00000024
#043380:14
#0433a0:00000024
#053380:14003400343400240000000000000000
