This file was generated by Ched 2.6.4.0.
#TITLE ""
#ARTIST ""
#DESIGNER ""
#DIFFICULTY 0
#PLAYLEVEL
#SONGID ""
#WAVE ""
#WAVEOFFSET 0
#JACKET ""
#REQUEST "ticks_per_beat 480"
#00002: 4
#BPM01: 257
#00008: 01
#TIL00: ""
#HISPEED 00
#MEASUREHS 00
#0011a:14
#0021a:14
#00312:14
#00412:14
#00518:14
#00618:14
#00714:14
#00814:14
#0171a:14
#0181a:14
#01912:14
#02012:14
#03319:14
#03313:14
#02118:14
#02218:14
#02314:14
#02414:14
#02518:14
#02514:0014
#02510:41
#02618:14
#02714:14
#02718:0014
#02814:14
#0291a:14
#02914:0014
#0301a:14
#03112:14
#03118:0014
#03212:14
#03512:1616
#03418:2616
#03912:1616
#03818:2616
#04218:1616
#04210:41
#04312:1616
#04418:1616
#04512:1616
#04618:16
#04612:0016
#04718:16
#04712:0016
#04818:16
#04812:0016
#05014:14
#0511a:14
#05212:14
#05318:14
#05414:14
#05518:14
#05818:14
#05814:0014
#05918:14
#06014:14
#06018:0014
#06114:14
#0621a:14
#06214:0014
#0631a:14
#06412:14
#06418:0014
#06512:14
#08214:14
#0821a:0014
#08314:14
#08418:14
#08412:0014
#08518:14
#08612:14
#08618:0014
#0861f:11
#08714:14
#0881a:14
#08814:0014
#08918:14
#09814:14
#0991a:14
#09912:14
#10112:0016
#10118:16
#10512:0016
#10518:16
#10818:16
#10812:0016
#10912:0016
#10918:16
#11018:16
#11012:0016
#11112:0016
#11118:16
#11218:1616
#11312:1616
#11418:1616
#10012:0016
#10018:26
#1001f:21
#10412:0016
#10418:26
#11618:14
#11712:14
#1181a:14
#11914:14
#12018:14
#12010:41
#12114:14
#1221a:14
#12312:14
#12418:14
#12412:0014
#1251a:14
#12614:14
#1261a:0014
#12712:14
#1281a:14
#12812:0014
#12918:14
#13012:14
#1301a:0014
#13114:1414
#13118:00140000
#1321a:2414
#13214:00140000
#13314:1414
#1331a:00140000
#13418:2414
#13412:00140000
#13518:00140000
#13512:1414
#13618:0014
#13614:00140000
#1361a:24
#13712:14
#13714:0014
#13718:00140000
#07818:26
#10210:41
#00910:41
#06610:41
#0093a0:1434
#0103a0:24
#011340:1434
#012340:24
#013380:1434
#014380:24
#015320:1434
#016320:24
#036380:1626
#037320:1626
#040380:1626
#041320:1626
#049380:1626
#056340:14
#057340:24
#0663a0:14
#0673a0:24
#068320:14
#069320:24
#070380:14
#071380:24
#072340:14
#073340:24
#0743a0:14
#075380:24
#076320:14
#076330:0034
#077340:24
#078380:16
#080380:36
#081380:26
#090340:14
#091320:34
#092340:34
#093320:24
#094380:14
#0953a0:34
#096380:34
#0973a0:24
#102380:1626
#103320:1626
#106380:1626
#107320:1626
#115320:1626
#1383a0:1434
#1393a0:24
#140320:16
#141320:36
#142320:36
#145320:00000024
