This file was generated by Ched 2.6.4.0.
#TITLE ""
#ARTIST ""
#DESIGNER ""
#DIFFICULTY 0
#PLAYLEVEL
#SONGID ""
#WAVE ""
#WAVEOFFSET 0
#JACKET ""
#REQUEST "ticks_per_beat 480"
#00002: 4
#BPM01: 257
#00008: 01
#TIL00: ""
#HISPEED 00
#MEASUREHS 00
#0011a:12
#00114:12
#00116:00000012
#00118:0000000000120012
#0021a:12000012
#00218:0000121200000000
#00214:0000121200000000
#00216:12000012
#0031a:1212
#00314:0000001200000012
#00316:0012000000120000
#00318:00120012
#00516:1200000000000012
#00514:0000000000120000
#0051a:0012
#0051c:12120000
#00518:00000012
#00612:0000131300001300
#0061b:0000131300001300
#0061a:12
#00614:12
#00618:0000000000000013
#00715:13130000
#0071b:0000000013000013
#00718:0000001300000000
#00712:0013000000130000
#00716:00000013
#00818:0000130000130000
#00815:0013001300001300
#00817:13
#0081b:0013
#00812:0000000000000013
#0121b:13
#01212:1300141400130000
#0121a:0000141400000000
#01215:00000013
#01218:0000000000000013
#01512:1424001424001626
#0151a:2414002414000000
#01518:0000000000002616
#01618:00120012
#01616:0012
#01712:12
#01714:00120000
#01716:0012
#01718:00000012
#0181a:1212
#0181c:00120000
#01816:0000001200000000
#01812:00000012
#01818:0000000000000012
#01916:00120000
#01918:0012
#0191a:00000012
#01914:12
#02014:0012000000000000
#02016:0000001200001200
#02018:0000000012000012
#0201c:12
#0201a:00120000
#02118:00120000
#02114:0000001200000000
#02116:12
#02319:0000000000120012
#02315:00001212
#02316:12
#02318:00120000
#02416:1313
#02417:00130013
#0241b:1313
#02412:00130013
#0281b:13000013
#02814:0000000000000013
#02812:00130000
#02818:0013000013000000
#02815:0000001300000000
#02912:13000013
#02919:0000000000000013
#02917:13
#0291b:0000001313000000
#02916:00131300
#14015:0013
#14012:13
#14018:0013
#1401b:13
#04819:00130013
#04817:0013
#0481b:13
#04814:0013000000000013
#04812:1300001300130000
#04715:0000130000130013
#04718:0013001300001300
#0471b:1313
#04712:1313
#04615:0000130000130013
#04618:0013001300001300
#0461b:0013
#04612:1313
#04218:0013000000130000
#04212:0000001300000013
#04210:41
#07416:0000000000000013
#0741b:00130000
#07417:00000013
#07414:0000000000130000
#07419:0013
#07412:2400001300000000
#0741a:24
#11412:1424
#11418:0014000000000014
#11414:0000001400140000
#11416:00140014
#1141a:24
#04015:0013001300000000
#04018:00130000
#04012:1300000013130000
#0401b:1313
#05014:0000001400000014
#05016:2300000014141400
#05018:00140000
#0501b:23
#05412:24130013
#05416:0013
#05418:00000013
#06416:0012141400000000
#06418:12
#06414:0000000018180000
#06412:0000001c
#0861a:0014000000000000
#08616:1400000000140014
#08618:0000001400000000
#08614:00140000
#08612:00001414
#0861f:11
#12816:0014001400140000
#12812:24261414
#1281a:24142400
#12818:00000026
#1241a:2414001424002400
#12414:2400240014140000
#13117:0000000000130000
#1311b:0013
#13116:0000000000000013
#13112:26002613
#13118:00260000
#13119:00000000000000000033003300000000
#13114:00000000000000000000000000330033
#02618:0000130000000013
#02615:0000001300001300
#02612:0013
#02616:13
#03115:00000013
#0311b:0000130000000013
#03112:1313
#03118:0000000000130000
#03116:0013000000000000
#03117:0000001300000000
#0831b:13132313
#08312:13132313
#08315:0013000000130000
#08318:0000001300000000
#03218:0000001300000013
#03215:1313
#0321b:0013000000130000
#03212:00130013
#03314:12
#0331a:00000012
#03318:0012
#03316:00120000
#09018:000000131313
#09012:000000000000001300130013
#09015:001300130013000000000000
#0901b:231313000000
#08218:16161616
#08212:0016000000160000
#13818:2616002616002616
#13812:1626001626001626
#03719:0000000000130000
#03714:0013000000000000
#03717:13
#03716:0013
#00412:1212
#00418:1212
#00416:00120012
#0041c:00120012
#00916:0013000000000000
#00914:0000001300000013
#00912:0000000000130000
#00910:41
#01116:0013000000000000
#01112:0000001300000000
#01117:0000000000130000
#0111b:0000000000000013
#01016:0013000000000000
#01014:0000001300000013
#01012:0000000000130000
#02218:12
#02216:00120000
#0221a:0000001200000000
#02516:1313
#02517:00130013
#0251b:13
#02510:41
#0271b:1313
#02712:13130013
#0301b:13000013
#03018:0000000000000013
#03016:13
#03012:0000001313000000
#03017:00131300
#0341b:2300000000130000
#03417:0000000000000013
#03412:00000013
#03416:0013
#03512:13000013
#0351b:0000131300000000
#03517:00000000000000000013000000000000
#03516:0000001300000000
#03812:2300000000130000
#03816:0000000000000013
#0381b:00000013
#03817:0013
#0391b:13000013
#03912:0000131300000000
#03916:00000000000000000013000000000000
#03917:0000001300000000
#0431b:0013000000130000
#04315:0000001300000013
#04418:0013000000130000
#04412:0000001300000013
#0451b:0013000000130000
#04515:0000001300000013
#04916:13
#04912:00000000333333331333333333000000
#0491b:13
#04917:00000000333333331333333333000000
#04915:00330000000000000000000000000033
#04914:0033000000000033
#04913:00000033000000000000000000330000
#0491a:00330000000000000000000000000033
#04919:0033000000000033
#04918:00000033000000000000000000330000
#05118:2400001400000014
#05116:0000000014141400
#05114:00140000
#05212:0000001400000014
#05216:0000000014141400
#0521a:00140000
#05214:24
#0531a:2400001400000014
#05316:0000000014141400
#05312:00140000
#05516:0013
#05512:00000013
#05517:13
#05617:00130013
#0561b:1313
#07517:0000000000000013
#07512:24130000
#07516:00000013
#07519:0000000000130000
#07514:0013
#0751b:0000001300000000
#0751a:24
#0761a:2413000024000000
#07614:00130000
#07617:0000001300000000
#07613:0000000000130000
#07619:00000013
#07616:0000000000000013
#07612:2424
#08512:13132313
#0851b:13132313
#08518:0013000000130000
#08515:0000001300000000
#08412:16161616
#08418:0016000000160000
#08718:0014000000001600
#0871a:0000001400000000
#08714:14
#08716:00140000
#08712:0026
#08812:0014000000140000
#08816:1400001414000014
#0881a:00140014
#07017:13
#0711b:00000013
#07216:13
#07312:00000013
#0691b:00000013
#09118:000000131313
#09112:000000000000001300130013
#09115:001300130013000000000000
#0911b:231313000000
#09218:0013
#09214:001300000000000000000013
#0921a:001300000013
#09213:00130013
#09219:001313
#09212:000000000013001300000000
#0921b:23
#0941b:231300131300
#09415:000000130013000000130013
#09418:000013000013
#09412:001300000000001300000000
#10612:0013000000130000
#10616:1323
#1061b:2300001300000000
#10617:00230000
#10017:2300000000130000
#10019:0000000000000013
#10014:00000013
#10012:2313
#1001f:21
#1011b:13000013
#10116:13
#10112:0000131300000000
#10117:0000001300000000
#10316:0013000000000000
#10317:0000000000130000
#1031b:23
#10312:0023
#10416:2300000000130000
#10414:0000000000000013
#10419:00000013
#1041b:2313
#10512:13000013
#10517:13
#1051b:0000131300000000
#10516:0000001300000000
#1071b:0013000000000000
#10718:0000000000000013
#10719:0000000000130000
#1071a:0000001300000000
#10715:00230000
#10714:0023
#10713:00000023
#10912:1424
#10918:0014001400001400
#10914:0000140000140014
#1091a:2414
#11112:1424
#1111a:2414
#11115:0000140000140014
#11117:0014001400001400
#1081b:2313
#10812:1323
#10819:0013001300001300
#10814:0000130000130013
#11012:1323
#11018:0013001300001300
#11015:0000130000130013
#1101b:2313
#11212:1323
#1121b:2313
#11217:0013001300001300
#11216:0000130000130013
#11312:1424
#11316:0014141400141414
#1131a:2414
#1201b:00130013
#12017:0013
#12015:00000013
#1201a:24
#12010:41
#12117:0013
#1211b:00000013
#12116:13
#12216:00130013
#12212:1313
#12519:2414001424002400
#12513:2400240014140000
#12618:2414001424002400
#12612:2400240014140000
#1291a:24142400
#12916:0014001400140000
#12912:24261414
#12918:00000026
#11616:0000001400140014
#11612:00141414
#1161a:24140000
#11816:0000001400140014
#11812:24140000
#1181a:24141414
#1171a:24140000
#11712:24141414
#11716:0000001400140014
#1191a:24141414
#11912:24140000
#11916:0000001400140014
#1231b:2300001300001300
#12312:23000013
#12315:0013000000130000
#12318:00131300
#13218:001313001313
#13215:001300000013001300000013
#13212:00130013
#1321b:2313
#09612:000000000013000000000013
#09617:000013000013
#09614:00130013
#09619:001300001300
#09616:001300000000001300000000
#0961b:2313
#0971a:241400141400
#09712:000000140014000000140014
#09716:001400001400001400001400
#13418:231313
#1341b:001300230013
#13412:000000130000001300000013
#13415:001300000013000000130000
#13716:001400001400000000000000
#1371b:231300230000
#13712:000000000000230000001300000000000000000000230000
#13718:0000000000230000
#13715:00000023
#13518:231313
#13512:000000130000001300000013
#13515:001300000013000000130000
#1351b:001300230013
#1421b:0000001300000000
#14212:0000001300000000
#14418:13
#14415:13
#0771a:14
#07712:2414
#07718:003400000000000000000000
#07717:003400000000
#07714:000000000000003400000000
#07715:000034
#07716:00340034
#12719:2414001424002400
#12713:2400240014140000
#13616:001400001400001400001400
#13612:000000230013000000230013
#1361b:231300231300
#1331b:2313
#13312:00130013
#13315:001300000013001300000013
#13318:001313001313
#10212:0000001300000013
#10218:0013000000130000
#10215:00130013
#1021b:1313
#10210:41
#03615:0000131300000000
#0361b:1313000000000000
#03618:0000000013130000
#03612:0000000000001313
#01317:0013000000000000
#01319:0000001300000013
#0131b:0000000000130000
#01417:0013000000000000
#01419:0000001300000013
#0141b:0000000000130000
#04118:0000000000000013
#04119:0000000000130000
#04114:0013
#0411b:0013000000000000
#0411a:0000001300000000
#04113:00000013
#04115:00130000
#11512:0000140014140014
#11516:00140000000000000014000000000000
#1151a:2414001400001400
#06617:13
#06610:41
#0571b:13000013
#05712:1300001300001300
#05718:0013000000130000
#05715:00131300
#05918:13131313
#05912:1313
#05915:0013000000130013
#0591b:0000001300000000
#06316:0000000000000012
#06318:0013001300001200
#0631b:1313
#06312:1313
#06315:00130000
#0781b:131313000000
#07812:001300130013000000000000
#07818:000000131313
#07815:000000000000001300130013
#0791b:131313000000
#07912:001300130013000000000000
#07918:000000131313
#07915:000000000000001300130013
#0801b:131300131300
#08015:001300000000001300000000
#08012:000000130013000000130013
#08018:000013000013
#09318:0013
#09314:001300000000000000000013
#0931a:001300000013
#09313:00130013
#09319:001313
#09312:000000000013001300000000
#0931b:23
#0951b:231300131300
#09515:000000130013000000130013
#09518:000013000013
#09512:001300000000001300000000
#0811b:131300131300
#08115:001300000000001300000000
#08112:000000130013000000130013
#08118:000013000013
#0581b:1300130013000013
#05815:1300000000130000
#05812:0013000013000000
#05818:0000001300001300
#06012:1300130013000013
#06018:1300000000130000
#0601b:0013000013000000
#06015:0000001300001300
#06115:13131323
#0611b:13001323
#06118:0013000000130000
#06112:0000001300000000
#0621b:1300001313000000
#06212:1300000013000013
#06215:0013000000001300
#06218:0000130000130000
#13918:0024000000000000
#13914:00240000
#09914:00002828
#09916:24240000
#09817:00002222
#09815:26
#13012:2c
#13015:0000003600000000
#13016:0034
#13014:00380000
#06516:24
#06514:00280000
#06512:002c
#08912:002c
#14055:0023
#14052:53
#14058:0023
#1405b:63
#1315b:0063
#13152:36003653
#13157:0000000000230000
#13158:00460000
#13156:0000000000000023
#02952:13
#02957:53
#0295b:0063
#02956:0013
#08656:34
#08654:00340000
#08652:00003434
#0465b:0013
#04652:13
#04752:13
#0475b:0013
#02652:0013
#0265b:13
#02858:0013
#02856:13
#13057:00000012
#13052:5c
#12852:00360000
#12858:00000046
#09855:16
#08258:00160016
#00752:0000000000530000
#00756:00000023
#0075b:0000000000000063
#00857:23
#02156:62
#02258:52
#02356:62
#02358:00520000
#02556:6363
#02557:00530053
#02552:00130013
#0255b:1313
#0275b:6363
#02757:00130013
#02752:13530053
#02756:0013
#0305b:13
#03056:63
#03052:0053
#03057:0013
#03152:53
#03156:0023000000000000
#0315b:00630000
#03157:0000002300000000
#03552:53
#0355b:0000006300004300
#03557:00000000000000000023000000000000
#0345b:13
#0395b:63
#03952:0000005300003300
#03956:00000000000000000023000000000000
#03852:13
#05056:43
#0505b:43
#04956:63
#04952:0023
#0495b:63
#04957:0023
#0615b:00000013
#06155:00000013
#06452:0000006c
#06556:14
#06554:00180000
#06552:001c
#0745a:14
#07452:14
#0755a:14
#07552:14
#07652:14
#0765a:0014
#07752:1454
#0775a:64
#08452:00160016
#08754:34
#08756:00340000
#08856:4444
#0885a:00440044
#08952:001c
#10054:00000013
#10052:0013
#10057:13
#1015b:63000013
#10156:13
#10152:0000135300000000
#10157:0000001300000000
#10459:00000013
#1045b:0013
#10456:13
#10552:53000013
#10557:13
#1055b:0000136300000000
#10556:0000001300000000
#10952:14
#1095a:0014
#11152:14
#1115a:0014
#1085b:0013
#10852:13
#11052:13
#1105b:0013
#11252:13
#1125b:0013
#11352:14
#1135a:0014
#12454:00340000
#1245a:00000044
#12553:00340000
#12559:00000044
#12652:00340000
#12658:00000044
#12952:00360000
#12958:00000046
#1165a:14
#1425b:0000006300000000
#14252:0000005300000000
#14458:23
#14455:23
#05452:14000053
#05557:23
#1205b:00000063
#1205a:14
#12156:23
#12753:00340000
#12759:00000044
#04154:0013
#04153:00000013
#04155:00130000
#11752:14
#1185a:14
#11952:14
#05158:14
#0535a:14
#05254:14
#08352:00000013
#0835b:00000013
#0855b:00000013
#08552:00000013
#01558:0000000000000016
#01552:0000000000000016
#13958:0014000000000000
#13954:00140000
#007320:0000000000130023
#007360:00000053
#0073b1:0000000000000013
#008371:53
#0083b1:0023000000000000
#0093b1:1323000000000000
#009391:0000132300000000
#009371:0000000013230000
#009391:0000000000001323
#0103b1:1323000000000000
#010391:0000132300000000
#010371:0000000013230000
#010391:0000000000001323
#0113b1:1323000000000000
#011371:0000132300000000
#011321:0000000013230000
#011361:0000000000001323
#013321:1323000000000000
#013341:0000132300000000
#013361:0000000013230000
#013341:0000000000001323
#014321:1323000000000000
#014341:0000132300000000
#014361:0000000013230000
#014341:0000000000001323
#021361:12
#021321:00220000
#021381:00001222
#021360:00000012
#022360:22
#022381:12
#0223c1:00220000
#022361:00001222
#022380:00000012
#023380:22
#023361:12
#023321:00220000
#023380:00120000
#0233c0:0022
#025360:13
#025320:00230000
#025371:00130000
#0253b1:0023
#025360:0013
#025320:00000023
#025371:00000013
#0263b1:23
#0273b1:13
#027371:00230000
#027320:00130000
#027360:0023
#0273b1:0013
#027371:00000023
#027320:00000013
#028360:23
#029370:13
#0293b0:00230000
#0293b0:0013
#029370:00000023
#030360:13
#030320:00230000
#030320:0013
#030360:00000023
#031320:13230000
#031360:0053000000000000
#0313b1:00132300
#031371:0000005300000000
#034361:13
#034321:00230000
#034370:00130000
#0343b0:0023
#035320:13
#035360:00230000
#0353b0:0000001300002300
#035370:00000000000000000053000000000000
#037370:00130000
#0373b0:0023
#037360:00000013
#038320:23
#038371:13
#0383b1:00230000
#038360:00130000
#038320:0023
#0393b0:13
#039370:00230000
#039320:0000001300002300
#039360:00000000000000000053000000000000
#0403b0:0000000000130000
#040370:0000000000000023
#040321:0000000000000013
#041361:0023000000000000
#042321:1333230000000000
#042380:0000133323000000
#042321:0000000013332300
#042380:0000000000001333
#043380:23
#043351:1333230000000000
#0433b0:0000133323000000
#043351:0000000013332300
#0433b0:0000000000001333
#0443b0:23
#044321:1333230000000000
#044380:0000133323000000
#044321:0000000013332300
#044380:0000000000001333
#045380:23
#045351:1333230000000000
#0453b0:0000133323000000
#045351:0000000013332300
#0453b0:0000000000001333
#0463b0:23
#049360:13
#049350:00330000000000000000000000000033
#049340:0033000000000033
#049330:00000033000000000000000000330000
#049320:00000000333333333333333333000000
#050360:23
#0493b1:13
#0493a1:00330000000000000000000000000033
#049391:0033000000000033
#049381:00000033000000000000000000330000
#049371:00000000333333333333333333000000
#0503b1:23
#0543b1:1323
#054371:00330000
#054321:00000013
#055371:53
#055321:00230000
#055370:00130023
#0553b0:0033
#056360:1333
#056320:00330023
#064320:0000001c
#065360:24
#066320:13230000
#066371:00132300
#066340:0000000013230000
#0663b1:0000000000132300
#066360:00000013
#067360:23
#0673b1:13230000
#067350:00132300
#067381:00001323
#067350:0000000000001323
#0673b1:0000000000000013
#0683b1:23
#068320:13230000
#068381:00132300
#068350:00001323
#0683b1:00000013
#0693b1:23
#069320:1323000000000000
#069371:0013230000000000
#069340:0000132300000000
#069391:0000001323000000
#069360:00001323
#070320:13230000
#070371:00132300
#070320:0000000013230000
#070391:0000000000132300
#070340:0000000000001323
#0703b1:0000000000000013
#0713b1:23
#071360:1323000000000000
#071391:0013230000000000
#071340:0000132300000000
#071371:0000001323000000
#071320:00001323
#0723b0:13230000
#072361:00132300
#0723b0:0000000013230000
#072341:0000000000132300
#072390:0000000000001323
#072321:0000000000000013
#073321:23
#073370:1323000000000000
#073341:0013230000000000
#073390:0000132300000000
#073361:0000001323000000
#0733b0:00001323
#0773a0:14
#077380:003400000000000000000000
#077370:003400000000
#077360:000000343434240000000000
#077321:0014
#077341:000000000000003400000000
#077351:000034
#077361:000000000000000000343434
#078361:24
#087321:00001626
#089321:1c3c3c3c3c3c3c3c2c00000000000000
#100321:13
#100361:00230000
#1003b0:00130000
#100370:0023
#1013b0:13
#101370:00230000
#101320:0000001300000000
#101360:00000023
#1033b0:00130000
#103370:0023
#103320:00000013
#104360:23
#1043b1:13
#104371:00230000
#104320:00130000
#104360:0023
#105320:13
#105360:00230000
#1053b0:0000001300000000
#105370:00000023
#1063b0:0000000000130000
#106370:0000000000000023
#106321:0000000000000013
#107361:0023000000000000
#120321:1323
#120361:00330000
#1203b1:00000013
#121361:53
#1213b1:00230000
#121360:00130023
#121320:0033
#122370:1333
#1223b0:00330023
#130320:1c
#130340:00380000
#130350:0000003600000000
#130360:0034
#130370:00000022
#1313b0:00001323
#131390:00000000000000000033003300000000
#131370:0000000000330000
#131321:00000013
#131341:00000000000000000000000000330033
#131361:0000000000000033
#132321:23
#140321:13
#140351:0053
#141321:33
#141361:0000003300000000
#142321:3300003300000000
#144351:53
#145321:56565656000000000000000000000000
#145341:0054005400540000000000000000000054005400000000000000000000000000
#145351:0000000000000053005300530053000000000000530053002300000000000000
#145331:00000000555555550000000000000000
#145361:0000000000000000000000000000005200520052005200520000000000000000
#1403b0:13
#140380:0053
#1413b0:3300003300000000
#142370:33
#1423b0:0000003300000000
#144380:53
#145380:5654565456545653555355535553555254525452535253522300000000000000
