This file was generated by Ched 2.6.4.0.
#TITLE ""
#ARTIST ""
#DESIGNER ""
#DIFFICULTY 0
#PLAYLEVEL
#SONGID ""
#WAVE ""
#WAVEOFFSET 0
#JACKET ""
#REQUEST "ticks_per_beat 480"
#00002: 4
#BPM01: 257
#00008: 01
#TIL00: ""
#HISPEED 00
#MEASUREHS 00
#0011a:12
#00114:12
#00116:00000012
#00118:0000000000120012
#0021a:00120000
#00214:0000001200000000
#00216:12000012
#0021c:00000012
#0031a:12120000
#00316:0012001200000000
#00318:00001212
#00314:0000000000120012
#00514:1212
#00519:0000000000120000
#00518:00120000
#0051a:1200000000000012
#00515:00000012
#00618:00130000
#00615:0000001300000000
#00616:12
#0061b:00000013
#00612:00000013
#00818:00130013
#00815:0000001300130000
#0081b:0013
#0121b:13
#01218:00140000
#01214:0000001400000000
#01212:13
#01618:00120012
#01616:0012
#01712:12
#01718:00120000
#01714:0012
#0171a:00000012
#01816:1200001200001200
#01818:0000120012000012
#01918:00120000
#01914:0012
#0191a:00000012
#01916:12
#02818:00000013
#02812:0000000000000013
#02815:13131300
#0281b:0013001300000000
#04818:00000013
#04819:0013
#0481a:00130000
#04812:0000000000000013
#04813:0000000000130000
#04814:0000001300000000
#04815:0013000000000000
#0481b:13
#07418:0000001300130013
#07412:00131313
#0741a:24
#05018:0000001400000000
#05019:0000000000140000
#0501a:0000000000000014
#05012:00140000
#05013:0014
#05014:00000014
#05017:23
#06414:14
#06418:00140016
#06412:0016
#05712:0000001300000000
#05715:0013000000130000
#05718:00131300
#0571b:13000013
#02012:12
#02018:0012000000000000
#0201a:0000001200001200
#02014:00120000
#02016:0000000012000012
#02618:0000000013000013
#02615:0000001300001300
#0311b:13000013
#03115:0000000000130000
#03118:00130000
#02316:00001212
#02314:12120000
#0231a:12120000
#02318:0000000000120000
#0861a:1414
#08612:00140014
#0861f:11
#08315:0000000000130000
#08318:00002313
#08312:0013001300000000
#0831b:13130000
#03215:13
#0321a:0000001300000000
#03213:0013
#03219:0000000000130000
#03212:00000013
#0321b:0013000000000000
#03214:00130000
#03318:12
#03316:00000012
#0331a:0012
#03314:00120000
#08218:1600160000160000
#08212:0016000016001600
#0041a:12
#00414:00000012
#00416:00120000
#00418:0012
#0091b:13130000
#00918:00001313
#00915:13130000
#00912:00001313
#00910:41
#0111b:13130000
#01118:00001313
#01112:00001313
#01115:13130000
#0101b:13130000
#01018:00001313
#01015:13130000
#01012:00001313
#0241b:13
#02418:00130000
#02415:0013
#02412:00000013
#02518:13
#02512:00130000
#02515:00000013
#0251b:0013
#02510:41
#07612:0013000000000013
#07618:24130013
#07615:0000001300130000
#0761a:0024
#05412:00140014
#05418:2414
#04119:00000013
#0411a:0013
#0411b:00130000
#04115:0000000000000013
#04114:0000000000130000
#04113:0000001300000000
#00712:0000000000130000
#00719:00130000
#00717:0013
#00714:0000001300000000
#00716:0013000000000000
#0071b:13
#00715:0000000000000013
#0211a:12
#02114:00120000
#02118:0000001200000000
#02214:12
#0221a:12120000
#02216:0000001200000000
#02715:13
#0271b:00130000
#02718:00000013
#02712:0013
#02918:13
#02915:0013
#03012:0013
#0301b:13
#01312:13130000
#01315:00001313
#01318:13130000
#0131b:00001313
#01412:13130000
#01415:00001313
#01418:13130000
#0141b:00001313
#0341b:23130013
#03412:2300130000000013
#03415:0000000000130000
#03418:0013
#03518:13
#03515:00130000
#0361b:0000001300130000
#03618:0013000000000013
#03615:00130013
#03612:1313
#0371b:0013
#03712:0013
#03715:00000013
#03718:00000013
#03812:23130013
#0381b:2300130000000013
#03818:0000000000130000
#03815:0013
#03915:13
#03918:00130000
#04012:0000001300130000
#04015:0013000000000013
#04018:00130000
#0401b:1313
#04612:0000001300000013
#04615:0013000000130000
#04618:1313
#0461b:00130013
#04715:0000001300000013
#04712:0013000000130000
#0471b:1313
#04718:00130013
#04917:13
#0491b:000033333333133333333300
#04919:003300000000000000000033
#05114:0000001400000000
#05113:0000000000140000
#05112:0000000000000014
#0511a:00140000
#05119:0014
#05118:00000014
#05115:24
#05218:0000001400000014
#0521a:0000000000140000
#05212:00140014
#05214:0014
#05217:24
#05314:2400001400000014
#05312:0000000000140000
#0531a:00140014
#05318:0014
#05518:0014
#05512:00000014
#0561a:1414
#05614:00140014
#06018:1313
#06018:0013
#06012:1313
#06012:0013
#06015:00130013
#06015:00130013
#0601b:00130013
#0601b:00130013
#06112:1313
#06112:0013
#06118:1313
#06118:0013
#06115:00130023
#06115:00130000
#0611b:00130023
#0611b:00130000
#06618:00001313
#06615:0000000000130000
#06610:41
#06718:0000000013000013
#06712:0013
#06715:00000013
#06912:13
#06917:0013000000000000
#06914:00130000
#06919:0000001300000000
#07012:0013
#07018:0000000000130000
#07015:00000013
#0711b:13
#07115:0013000000000000
#07118:00130000
#07112:0000001300000000
#0721b:0013
#07215:0000000000130000
#07218:00000013
#07312:13
#07318:0013000000000000
#07315:00130000
#0731b:0000001300000000
#07515:0000001300130013
#0751b:00131313
#07512:24
#07714:00140000
#0771a:0014
#07712:00000014
#07718:24
#0801a:14140000
#08014:14140000
#08018:00001414
#08012:00001414
#0811a:1414
#08114:1414
#08118:00140014
#08112:00140014
#08412:1600160000160000
#08418:0016000016001600
#08518:0000000000130000
#08515:00002313
#0851b:0013001300000000
#08512:13130000
#08718:1426
#08714:00140000
#08812:1414
#0881a:00140014
#11414:0000001400000000
#11419:00140000
#11415:0014000000000000
#11413:0000000000140000
#11417:00000014
#11412:0000000000000014
#11418:0024
#1141a:24
#13615:0014000000140000
#13612:0000001400000014
#1361a:2424
#13617:00240024
#1401b:13
#14012:13
#09712:0014001400000000
#0971a:24140000
#09718:00001414
#09714:0000000000140014
#11612:00141414
#11616:0000001400140014
#1161a:24
#10912:0000000000140014
#10918:00002414
#10914:0014001400000000
#1091a:24140000
#11015:0013001300000000
#11018:23130000
#11012:0000000000130013
#1101b:00002313
#10815:0013001300000000
#1081b:23130000
#10812:0000000000130013
#10818:00002313
#09016:0013001300130013
#0901b:23131313
#09114:0013001300130013
#09119:23131313
#09212:0013001300130013
#09217:23131313
#09314:0013001300130013
#09319:23131313
#09416:0013001300000000
#0941b:23130000
#09419:0000000013001313
#09414:0000000000130000
#09612:0013001300000000
#0961b:23130000
#09619:00001313
#09614:0000000000130013
#1001b:00130013
#10015:0000130000000013
#10012:2300000000130000
#10018:2313
#1001f:21
#10118:1300001300000000
#10112:00130000
#10218:0000001300130000
#1021b:0013000000000013
#10212:00131300
#10215:13000013
#10210:41
#10315:0013
#10312:00000013
#1031b:0013
#10318:00000013
#10712:0000000000000013
#10713:0000000000130000
#10714:0000001300000000
#10718:00230000
#10719:0023
#1071a:00000023
#10412:00130013
#10418:0000130000000013
#1041b:2300000000130000
#10415:2313
#10515:1300001300000000
#1051b:00130000
#10615:0000001300130000
#10612:0013000000000013
#10618:23
#1061b:00232300
#11112:0000000000140014
#1111a:00002414
#11114:0014001400000000
#11118:24140000
#11212:0000001300000013
#11218:00130013
#11215:0013000000130000
#1121b:2323
#11312:0000001400000014
#11317:00140014
#11315:0014000000140000
#1131a:2424
#11516:0014000014000014
#1151a:24140014
#11512:0000001400140000
#1171a:00141414
#11716:0000001400140014
#11712:24
#11812:00141414
#1181a:2400000000000014
#11818:0000000000140000
#11816:0000001400000000
#1191a:00141414
#11912:2400000000000014
#11914:0000000000140000
#11916:0000001400000000
#12016:00140000
#12012:0014
#1201a:24000014
#12010:41
#12112:0014
#1211a:00000014
#12212:14
#12216:00140014
#1221a:0014
#1231a:0000001400000000
#12318:0014000000140000
#12314:00141400
#12312:24000014
#12414:0014000024002400
#1241a:2400240000140000
#12513:0014000024002400
#12519:2400240000140000
#12612:0014000024002400
#12618:2400240000140000
#12713:0014000024002400
#12719:2400240000140000
#12812:0016000026002600
#12818:2600260000160000
#12912:0016000026002600
#12918:2600260000160000
#13215:0013000000000000
#1321a:00130000
#13214:0000001300000000
#13219:0013
#13213:0000000000130000
#13218:00000013
#13212:0000000000000013
#1321b:23
#13315:0013000000000000
#1331a:00130000
#13314:0000001300000000
#13319:0013
#13313:0000000000130000
#13318:00000013
#13312:0000000000000013
#1331b:23
#13415:0013000000130000
#13418:00130013
#13412:0000001300000013
#1341b:2323
#13512:0000131300000000
#1351b:2300131300000000
#13518:00000013
#13515:0000000000130013
#13715:0014000000230000
#13712:0000001400000023
#1371b:0023
#1371a:24
#13718:00000023
#13717:00240000
#14512:16
#14518:16
#14218:0000001300000000
#14215:0000001300000000
#09514:0000000013001313
#09519:0000000000130000
#09517:0013001300000000
#09512:23130000
#01518:24000026
#01514:0024000000000000
#01519:0000002400000000
#01513:0024
#01512:0000000000000026
#0651a:2424
#06512:00240000
#08912:0026
#13818:2600002600002600
#13812:0026000026000026
#09815:26
#09816:00000022
#09818:0022
#13018:26
#1301b:0000333333000000
#09914:00000024
#09915:00230000
#09918:2324
#13914:00240000
#13918:0024000000000000
#13112:2626
#13118:00260000
#04210:41
#0345b:13
#03452:13
#03852:13
#0385b:13
#0615b:00000013
#06155:00000013
#06458:00000066
#0655a:1414
#06552:00140000
#0745a:14
#07552:14
#08952:0016
#05452:00000054
#05458:14
#00752:0000000000530000
#00755:0000000000000063
#02552:00130000
#02555:00000013
#0275b:00130000
#02758:00000013
#02958:53
#02955:0063
#03052:0053
#0305b:63
#0315b:63
#03158:00530000
#03558:00000013
#0375b:0063
#03752:0053
#03755:00000063
#03758:00000053
#03955:00000013
#04052:0000000000530000
#04055:0000000000000063
#04957:53
#0495b:0023
#05155:14
#05257:14
#05354:14
#08358:00000013
#08555:00000013
#0865a:1414
#08652:00140014
#08758:14
#08754:00140000
#08852:1414
#0885a:00140014
#1305b:00000013
#13058:56
#1165a:14
#09855:16
#1405b:63
#14052:53
#10355:0063
#10352:00000053
#1035b:0063
#10358:00000053
#10058:13
#10052:13
#1015b:00000013
#10158:0000005300000000
#10555:0000006300000000
#10552:00000013
#10455:13
#1045b:13
#10652:0000000000000053
#10655:0000000000630000
#11752:14
#1185a:14
#11952:14
#1205a:14000064
#1245a:00140000
#12454:00000014
#12559:00140000
#12553:00000014
#12658:00140000
#12652:00000014
#12759:00140000
#12753:00000014
#12858:00160000
#12852:00000016
#12958:00160000
#12952:00000016
#13152:1616
#13158:00160000
#14552:66
#14558:56
#14258:0000002300000000
#14255:0000002300000000
#05057:33
#01552:0000000000000016
#13958:0014000000000000
#13954:00140000
#007320:0000000000130000
#007350:0000000000000033
#008320:0023000000000000
#021340:00001222
#0223a0:00001222
#0263b0:13230000
#029380:13
#0293b0:00230000
#029350:0013
#029320:00000023
#0303b0:13
#030380:00230000
#030320:0013
#030350:00000023
#0313b0:1323
#031380:00330000
#035380:0000001300002300
#037320:13
#037350:00230000
#0373b0:0013
#037380:00000033
#0383b0:23
#037321:0013
#037351:00000033
#038321:23
#039351:0000001300002300
#040321:0000000000130000
#040351:0000000000000033
#041321:0023000000000000
#042381:1333
#0423b1:00330023
#043351:1333
#043321:00330023
#0443b1:1333
#044381:00330023
#045321:1333
#045351:00330023
#049371:13
#049391:003300000000000000000033
#0493b1:000033333333333333333300
#050371:23
#054321:00000014
#055361:00240000
#058321:1333
#058351:00330023
#058380:1333
#0583b0:00330023
#0593b0:1333
#059380:00330023
#059351:1333
#059321:00330023
#0623b1:1333
#062381:00330023
#062350:1333
#062320:00330023
#063320:1333
#063350:00330023
#063381:1333
#0633b1:00330023
#064381:00000016
#0653a1:24
#066321:13230000
#067351:13230000
#068351:13230000
#0683b1:00001323
#069361:00001323
#0703b1:13230000
#0713b1:00001323
#072321:13230000
#073321:00001323
#0783a1:1434
#078371:00340024
#078350:1434
#078320:00340024
#079320:1434
#079350:00340024
#079371:1434
#0793a1:00340024
#087381:00001626
#089321:16363636363636362600000000000000
#101381:0000001300000000
#1013b1:00000023
#103351:13
#103321:00230000
#103351:0013
#103321:00000033
#104351:23
#1033b0:0013
#103380:00000033
#1043b0:23
#105350:0000001300000000
#105320:00000023
#106350:0000000000130000
#106320:0000000000000033
#107350:0023000000000000
#1203a0:00000014
#121360:00240000
#130380:16
#1303b0:0000333333002300
#1403b0:13
#141380:33
#1413b0:0000003300000000
#1423b0:33
#142380:0000003300000000
#145380:56
#1453c0:00000022
#140321:13
#141351:3300003300000000
#142321:33
#142351:0000003300000000
#145321:56000022
