This file was generated by Ched 2.7.0.0.
#TITLE ""
#ARTIST ""
#DESIGNER ""
#DIFFICULTY 0
#PLAYLEVEL
#SONGID ""
#WAVE ""
#WAVEOFFSET 0
#JACKET ""
#REQUEST "ticks_per_beat 480"
#00002: 4
#BPM01: 257
#00008: 01
#TIL00: ""
#VOLUME: ""
#HISPEED 00
#MEASUREHS 00
#0011a:12000012
#00114:12
#00118:0000000000120000
#0011c:0000000000000012
#00116:0000000000000012
#0021c:12
#00218:0000121200000000
#00212:0000121200000000
#00216:12
#0021a:00000012
#00214:00000012
#0031c:12
#0031a:0012000000000000
#00318:00121200
#00316:0000001200120000
#00314:00000012
#00312:0000000000000012
#0041c:1212
#00416:1212
#00418:00120012
#00412:00120012
#00516:1200000000000012
#00512:0000000000120000
#00514:00000012
#0051c:12121212
#00612:0000131300001300
#0061b:0000131300001300
#00618:1200000000130013
#0061c:12
#00615:0013
#00715:1300130000130000
#00718:0000001313000000
#00712:0013000013000013
#0071b:0000130000130000
#00717:00000013
#00818:0013001300001300
#0081b:0000130013000013
#00812:00001313
#00815:0000130000130000
#00816:13
#00915:0013000000000000
#00916:0000001300000000
#00917:0000000000130000
#00918:1300000000000013
#00919:00130000
#0091a:0013
#0091b:00000013
#00910:41
#01118:0013130000130000
#01115:0000001313000013
#0111b:13
#01112:00000013
#0121b:1300000000000013
#01212:1300001400000000
#01216:0014140000000000
#0121a:0000001400000000
#01215:0000000000130000
#01218:00000013
#01312:0013000000000000
#01313:0000001300000000
#01315:1300000000000013
#01316:00130000
#01314:0000000000130000
#01317:0013
#01318:00000013
#01512:1626001626001626
#01518:2616002616002616
#01617:00121212
#01718:12
#01719:00120000
#0171a:0012
#0171b:00000012
#01716:12
#01715:00120000
#01714:0012
#01713:00000012
#0181c:12
#01812:12001212
#0181a:00120000
#01816:0000001200000012
#01818:00001212
#01814:00120000
#0191c:00120012
#01916:00120012
#01918:0012
#01912:0012
#01914:12
#0191a:12
#02012:12000012
#02016:0012000012000000
#02014:0000120000000012
#02018:1200001200000000
#0201c:00001212
#0201a:0000120000000012
#02112:00120000
#02114:0000001200000000
#02118:12
#0211c:00120000
#02116:12
#0211a:0000003200000000
#0221c:00120000
#0221a:0000001200000000
#02216:12
#02212:00120000
#02214:0000003200000000
#0231c:0012000012000000
#02318:1200000000120000
#0231a:00000012
#02316:0000120000000012
#02312:0000001200000000
#02314:00000012
#02418:1313
#0241b:00130013
#0281b:1313000013001300
#02818:0000000000000013
#02812:0000131300001313
#02816:00130000
#02817:0013
#02918:0000131300000000
#02912:13000013
#0291b:0000000000000013
#02915:1300003313000013
#01018:0013000000000000
#01017:0000001300000000
#01016:0000000000130000
#01015:1300000000000013
#01014:00130000
#01013:0013
#01012:00000013
#1401b:0013
#14012:13
#14217:0000001300000000
#14412:13333333
#14419:24242424
#04612:13001313
#04618:0013000000001313
#04615:0000131300130000
#0461b:00131300
#04312:0013000000130000
#04314:1313
#04317:0013000000130000
#04316:0000001300000013
#0431b:0000001300000013
#04319:00130013
#04216:0013000000130000
#04212:1300001313000013
#0421b:0013130000131300
#04217:1300001300000013
#04210:41
#04819:00130013
#04817:0013
#04814:00130013
#04816:13
#04812:0013
#0481b:13
#0481a:0013000000000013
#04818:0000001300130000
#04815:0013000000000013
#04813:0000001300130000
#04718:0013000000001313
#04715:0000131300130000
#0471b:13131300
#04712:13001313
#04913:00000000001300000000001300000000
#04916:0000001300130000
#04912:00000000000000130013000000000000
#04915:00000013000000001300000000130000
#04917:00130000130000000000000013000013
#04919:0013000000000013
#0491b:13
#13918:00000013
#13915:000000260000260000000000000000000000000013001300
#07417:0000000000000013
#0741b:23130000
#07419:0000001300001300
#07418:1300000000130000
#0741a:0013
#07412:0000000000003333
#07413:0000000000330000
#07414:0033
#07415:0000003300000000
#07416:00330000
#0761b:23130000
#07618:1300001300000000
#07615:0000000013000013
#07614:0000330000130000
#07612:00002313
#07619:0013000000003300
#07617:0000000000330000
#0761a:0000000000000033
#07613:0000003300000000
#07616:0033000000000000
#07512:23130000
#07514:0000001300001300
#07515:1300000000130000
#07513:0013
#07516:0000000000000013
#0751b:0000000000003333
#0751a:0000000000330000
#07519:0033
#07518:0000003300000000
#07517:00330000
#07812:1313000000000013
#07815:00130000000000000000000000000013
#07817:00000013000000000000000000130000
#07814:00130013
#07819:00000000001300000000001300000000
#07816:0000001300130000
#0781b:00000000000000130013000000000000
#07818:0013
#10818:2313131300000000
#10815:0000000023131313
#10812:13130000
#1081b:00001313
#10918:2414141400000000
#10914:0000000024141414
#10912:14140000
#1091a:00001414
#1101b:2313131300000000
#11015:00131300
#11012:0000000023131313
#11018:13000013
#1111a:2414141400000000
#11112:0000000024141414
#11116:1414
#11114:00140000
#11118:00000014
#1121a:0013000000000000
#11219:00130013
#11213:0000000000130000
#11214:00130013
#11218:1300001300000000
#11215:0000000013000013
#11212:0023
#1121b:23
#11319:0014000000000000
#11318:00140000
#11313:0000000000140000
#11315:0000000000000014
#11314:00000014
#11316:1414
#11312:00142400
#1131a:24000014
#11317:0000001400000000
#11416:1400001414000014
#11419:0014000000001400
#11415:0014000000001400
#11417:0000140000140000
#11413:0000140000140000
#11412:0000001424000000
#1141a:2400000000000014
#04014:0013001300000000
#04017:00130000
#04016:1313
#0401b:1300000013130000
#04012:00130000
#05013:0000001400001400
#05016:0000140000140000
#05012:00130000
#05015:0013
#05018:00000013
#05019:0000000014000014
#0501b:23
#05412:23130000
#05418:0013
#05415:00000013
#0541b:00000013
#05512:13
#0551b:00000013
#05516:0013
#05712:1300001300000000
#05718:0000130013131313
#05715:00001300000000000013001300130013
#0571b:0000001300000000
#05819:13
#05812:13
#0581a:00130013
#05813:00130013
#05817:0000001300130000
#0581b:0013
#05814:0013
#05816:0013000000000013
#06216:1300001300130000
#06218:0013000000000013
#0621b:13
#06214:00130013
#06219:00130013
#06212:0013
#06217:0013
#06419:12131415
#06417:0012001200120000
#06415:12
#06414:00130000
#06413:0014
#06412:00000015
#06012:1313
#06017:0013000000130000
#06019:1313
#06014:00130013
#0601b:00130013
#06016:0000001300000013
#10012:23001313
#1001b:00000013
#10019:0000000000130013
#10014:0000000000130013
#10015:29
#1001f:21
#10112:13130013
#10117:0000001300000000
#10114:00000000000000000013000000000000
#1011b:1300001300000000
#1021b:13131300
#10217:0013001300000000
#10212:13001313
#10216:0000000000130013
#10215:00130000
#10218:00000013
#10210:41
#10318:00130013000000000000000023000000
#1031b:2313000000000000
#10315:00000000230000000013001300000000
#10312:0000000023130000
#10619:0013001300000000
#10612:2300000023130000
#10617:1313
#10616:00130000
#1061b:00230000
#10712:0000000013000013
#10715:0000130000132300
#1071b:0013230000001300
#10718:0000001323000000
#1371b:2300000023130000
#13718:0013001300231600
#13715:00130000230000130000000023001900
#13712:00000013001300000000000000002300
#0391b:13000000000000000013000000000000
#03917:13000000000000000013000000000000
#03912:0013001300000000
#03916:0013001300000000
#03615:0013
#03618:1300000000000013
#0361a:0000001300000000
#03612:13
#03613:0013000000001300
#03614:0000130000130000
#0361b:0013
#03619:00130013
#05119:0000001400001400
#05116:1400140000140000
#0511b:23130000
#05118:0013
#05115:00000013
#05113:0000000014000014
#05218:0000001400000014
#05214:0000000000140000
#05216:14130000
#05212:23001313
#05217:00001313
#0521b:00130000
#04512:0013000000130000
#04514:1313
#04517:0013000000130000
#04516:0000001300000013
#0451b:0000001300000013
#04519:00130013
#04416:0013000000130000
#04412:1300001313000013
#0441b:0013130000131300
#04417:0000001300000013
#08616:00180018
#08612:1800141418001400
#0861a:1414000014000000
#08618:0000000000140000
#08614:0000000000000014
#0861f:11
#08712:18142c00
#08716:0014181400000000
#0871a:14
#08816:1800000018140014
#08812:1414180014001800
#0881a:0000141400001400
#1051b:13130013
#10519:00000000000000000013000000000000
#10512:1300001300000000
#10517:00230000
#10516:0000002300000000
#03517:0013001300000000
#0351b:0013001300000000
#03516:13000000000000000013000000000000
#03512:13000000000000000013000000000000
#05616:00130013
#05612:0013
#05919:13
#05916:0013000000000013
#05912:13
#0591a:00130013
#05913:00130013
#05917:0000001300130000
#0591b:0013
#05914:0013
#06112:1313
#06117:0013000000130000
#06119:1313
#06114:00130023
#0611b:00130023
#06116:0000001300000000
#0631b:13
#06316:1300001300130000
#06318:0013000000000000
#06314:00130013
#06319:00130013
#06312:0013
#06317:0000000013000012
#1231b:2300001300000000
#12318:00001300000000000013001300130013
#12312:0000001300000000
#12315:0000130013131313
#12816:0014001400140014
#12818:26162616
#12812:26261626
#12916:0014001400140014
#12918:26162616
#12912:26261626
#12417:0014001400140014
#12414:24141414
#1241a:24242424
#12516:0014001400140014
#12513:24141414
#12519:24242424
#12615:0014001400140014
#12618:24141414
#12612:24242424
#12716:0014001400140014
#12719:24141414
#12713:24242424
#13115:230000000000000000000000000000130000003300000033
#1311b:00231300
#13118:000000000000230000000000003300000033000000130000
#13112:23002613
#13116:000000000000003333000000
#13117:000000000000000000003333
#14512:00000016
#14518:26262626
#02516:1313
#02517:00130013
#02510:41
#02614:0000000000000013
#02612:0000131313001300
#0261b:1300130000001313
#02617:0013
#02619:0000001300000000
#03112:1300130000001313
#03116:0013000000000013
#0311b:1300000013130000
#03117:0000001300130000
#1041b:23001313
#10412:00000013
#10414:0000000000130013
#10419:0000000000130013
#10418:23
#0411b:0000000013000013
#04118:0000130000131300
#04115:0000001313000000
#04112:0013130000001300
#03416:0000000013131313
#0341b:00000013
#03412:23
#07318:1300001300000013
#0731b:00000013
#07315:0013000000130000
#07312:0013
#03012:0000000000000013
#03018:1300003313000013
#03015:0000131300000000
#0301b:13000013
#0271b:1313
#02712:00130013
#02716:13
#07712:1313
#07715:001300000013001300000013
#07718:001313001313
#0771b:23130013
#0831b:13000013
#08318:00000000000000000013001300000000
#08315:0000000000130000
#08312:00002313
#08512:13000013
#08515:00000000000000000013001300000000
#08518:0000000000130000
#0851b:00002313
#05316:13001313
#05314:0000001400000014
#05318:0000000000140000
#05317:00130000
#0531b:23001313
#05312:00130000
#11712:2300131600001300
#11715:0000000013160000
#11718:2300130000001316
#1171b:0013
#11812:0000001613000016
#11818:0000000013160000
#1181b:23130013
#11815:23130013
#11918:2300131600001316
#11912:2300130000161300
#11915:0013
#1191b:0013
#11618:0000001613000000
#11615:0000130000161300
#1161b:00130013
#11612:0000000013000016
#11616:23
#03215:00130013000000000013001300001300
#0321b:1313000013130013
#03212:00000000001300130000000013000000
#03218:0000131300001300
#06514:00240018
#06518:22242600
#06516:22
#06512:0026
#0141b:0013000000000000
#0141a:0000001300000000
#01418:1300000000000013
#01417:00130000
#01419:0000000000130000
#01416:0013
#01415:00000013
#03817:0000000013131313
#03812:00000013
#0381b:23
#07118:0013000000130000
#07115:1300001300000013
#07112:00000013
#0711b:0013
#07218:13130000
#0721b:0013001300130000
#07212:0000000000000013
#07012:0013001300130000
#07015:13130000
#0701b:0000000000000013
#06712:0013000013000000
#06715:1300000000130000
#0671b:0000001300000013
#06718:00130000
#0681b:0013000000001300
#06818:1300000000000013
#06815:0000001300130000
#06812:00131300
#0661b:1300000000130013
#06618:0013000013001300
#06615:0000001300000000
#06612:00130000
#06610:41
#06915:0013000000130000
#06912:0013
#06918:0000001300000013
#0691b:00000013
#1201b:23130000
#12015:0013
#12018:00000013
#12012:00000013
#12010:41
#1211b:13
#12112:00000013
#12117:0013
#12217:00130013
#1221b:0013
#13217:000000000013
#13216:000013
#13214:001300
#13213:001300000000
#1321b:230000130000001300000013
#13219:000000000013000000000000
#13218:001300000000000000000000
#1321a:00000013
#13215:0013
#13316:000000000013
#13317:000013
#13319:001300
#1331a:001300000000
#13312:230000130000001300000013
#13314:000000000013000000000000
#13315:001300000000000000000000
#13313:00000013
#13318:0013
#1331b:23
#13416:001300001300000000000000
#13414:001300000000
#1341a:000000000013230000000000
#13418:00130000
#13419:23000013
#13417:000000000000001300001300
#1341b:000000000000000000000013
#13415:000013
#13412:23
#13413:0023
#03312:12
#0331b:00000012
#03318:0012
#03315:00120000
#09318:000013000013000000130013
#09315:001300130000001300001300
#09312:230000131300
#0931b:230013130000
#09112:2313
#09118:001300000013001300000013
#09115:001313001313
#0911b:23130013
#0901b:2313
#09015:001300000013001300000013
#09018:001313001313
#09012:23130013
#0961b:230000131313
#09612:230000000000001300130013
#09618:001313000000
#09615:001300130013000000000000
#09715:00000000000000000000000000130013
#09718:2616151514141313
#09714:00000000000000000014001400000000
#09713:00000000001500150000000000000000
#09712:00160016000000000000000000000000
#09415:001300130000130000130013
#09418:000013000013001300001300
#0941b:230013131300
#09412:23
#09218:000013000013000000130013
#09215:001300130000001300001300
#09212:230000131300
#0921b:230013130000
#07912:1313000000000013
#07915:00130000000000000000000000000013
#07917:00000013000000000000000000130000
#07914:00130013
#07919:00000000001300000000001300000000
#07916:0000001300130000
#0791b:00000000000000130013000000000000
#07918:0013
#08012:1300001313000000
#08018:00130000001300000013000013000013
#08015:00001300130000130000130000001300
#0801b:00000013000000000000001300130000
#08118:00130000001300000013000013000013
#08115:00001300130000130000130000001300
#0811b:00000013000000000000001300130000
#08112:1300001313000000
#08212:1815130013161800
#08219:0000000000150000
#0821b:13000013
#08216:00181800
#08218:0016000000000000
#08412:1316180018151300
#08419:0015000000000000
#0841b:00131300
#08416:18000018
#08418:0000000000160000
#09518:001300130000130000130013
#09515:000013000013001300001300
#09512:230013131300
#0951b:23
#11519:00000013000000130000001300000013
#11514:0013001300130013
#11517:00130000000000000013000000000000
#11516:2313
#1151b:00000000001300000000000000130000
#11512:00130013
#13516:000000000000001300001300
#13518:000013
#13517:001300001300000000000000
#13519:001300000000
#13512:000000000000000000000013
#13513:000000000013230000000000
#13515:00130000
#13514:23000013
#1351b:23
#1351a:0023
#13618:00001300001300002300000023000013
#13615:23000013000000130000130000130000
#13612:00130000000000000013001300000000
#1361b:0000231300000013
#13818:2616002616002616
#13812:1626001626001626
#03712:00000000000000000013001300000000
#03716:0000000013130000
#0371b:00130013000000000000000000000000
#03717:1313000000000000
#09914:0028
#09916:24
#09915:00260000
#09913:0000002a
#09912:24
#08912:0025
#08919:0025
#1431a:22222222
#14312:00000033
#14313:0033
#14314:00330000
#14315:33
#09816:00002424
#0981a:0024
#09815:26
#13018:26
#13012:2600343332000000
#1301b:0000003300000000
#1301c:0032
#1301a:00340000
#0385b:43
#14257:0000006300000000
#14452:23
#1405b:0023
#14052:53
#04352:0023000000230000
#04354:6363
#0435b:0000002300000023
#04359:00530053
#04256:0023000000230000
#04252:5353
#04257:0000002300000023
#0425b:00630063
#13955:0046360000000000
#07658:63
#07655:0053
#0765b:43
#07652:0033
#0545b:00000063
#05452:33
#05552:23
#06556:32
#06554:00340000
#06552:0036
#06558:42444600
#10852:13
#1085b:0013
#10952:14
#1095a:0014
#11055:0013
#11058:13
#11156:1414
#02158:52
#0215c:00220000
#02256:62
#02252:00220000
#02358:52
#0235c:0022000000000000
#02356:00620000
#02352:0000002200000000
#0395b:63000000000000000023000000000000
#03957:63000000000000000023000000000000
#03952:0023005300003300
#03956:0023005300003300
#04552:0023000000230000
#04554:6363
#0455b:0000002300000023
#04559:00530053
#04456:0023000000230000
#04452:5353
#04457:0000002300000023
#0445b:00630063
#10458:33
#1045b:0033
#10452:00000043
#10157:0000003300000000
#10152:33000033
#1015b:6300006300004300
#10154:00000000000000000023000000000000
#10156:00430000
#1055b:43000043
#10559:00000000000000000023000000000000
#10552:5300005300003300
#10557:00330000
#10556:0000004300000000
#00757:00000023
#0075b:0000000000630000
#00752:0000000000000053
#00856:23
#03658:13
#03654:00130000
#0365b:0013
#03653:00000013
#0355b:0023006300004300
#03557:0023006300004300
#03556:53000000000000000023000000000000
#03552:53000000000000000023000000000000
#1315b:00436300
#13158:0000330000000023
#13152:33003653
#13155:4300000000230000
#02952:1313
#02955:5353
#02958:00630000
#10252:13
#10255:00130000
#1025b:0013
#10258:00000013
#02556:5353
#02557:00630063
#02553:13
#0255b:00130013
#02552:0013
#03152:00530000
#03157:0000002300000000
#0315b:63
#03156:0023000000000000
#1005b:00000033
#10052:0043
#10055:49
#03452:33
#07358:0000000000000023
#0735b:00000063
#07355:0000000000230000
#07352:0053
#0275b:6363
#02752:00530053
#02756:13130013
#02757:0013
#02652:13
#02657:0013
#02857:1313
#08652:3838
#08656:00480048
#08752:38
#08756:00480000
#08856:3838
#08852:00480048
#06459:00000065
#06452:00000055
#0835b:00000043
#08352:00000033
#0855b:00000043
#08552:00000033
#08952:0035
#08959:0045
#0745b:43
#07458:63
#07552:33
#07555:53
#0775b:43
#04158:00130000
#04155:0013
#04152:00000013
#04652:13
#0465b:0013
#04752:13
#0475b:0013
#0305b:1313
#03058:6363
#03055:00530000
#07155:0000000000000023
#07152:00000053
#0715b:0063
#07158:0000000000230000
#07258:53530000
#0725b:0023002300000000
#07052:0023002300000000
#07055:63630000
#06752:0023000053000000
#06755:6300000000230000
#0675b:0000002300000000
#06758:00530000
#0685b:0023000000006300
#06858:5300000000000023
#06855:0000002300230000
#06852:00535300
#0665b:6300000000000023
#06658:0023000000005300
#06655:0000002300000000
#06652:00530000
#06955:0000000000230000
#06952:0053
#06958:0000000000000023
#0695b:00000063
#12052:00000053
#1205b:43
#1215b:23
#13052:66000012
#1305c:00000012
#13058:56
#01558:0000000000000046
#01552:0000000000000036
#0505b:43
#0515b:43
#05252:33
#0535b:43
#0615b:00000043
#06154:00000033
#0985a:0014
#09855:16
#09952:14
#11752:33
#1185b:43
#11952:33
#1245a:44444444
#12559:44444444
#12652:34343434
#12753:34343434
#12858:4646
#12852:00360036
#12958:4646
#12952:00360036
#08252:00330018
#0825b:00000043
#08256:00180000
#08452:00180033
#0845b:00430000
#08456:00000018
#11656:33
#13858:4646003636004646
#13852:4646003636003636
#11258:13
#11255:0013
#11356:1414
#0073b0:0000000000130023
#007370:00000053
#007321:0000000000000013
#008361:53
#008321:0023000000000000
#009321:1323000000000000
#009331:0000132300000000
#009341:0000000013230000
#009351:0000000000001323
#0103b1:1323000000000000
#0103a1:0000132300000000
#010391:0000000013230000
#010381:0000000000001323
#011351:1323000000000000
#011321:0000132300000000
#0113b1:0000000013230000
#011381:0000000000001323
#013381:1323000000000000
#013391:0000132300000000
#0133a1:0000000013230000
#0133b1:0000000000001323
#014351:1323000000000000
#014341:0000132300000000
#014331:0000000013230000
#014321:0000000000001323
#021381:1222
#0213c1:00320000
#0213a1:0000003200000000
#021360:00001222
#021381:00000012
#022381:22
#022360:1222
#022320:00320000
#022340:0000003200000000
#022381:00001222
#022360:00000012
#023360:22
#023381:12220000
#0233c1:0052000000000000
#023360:00122200
#023320:0000005200000000
#024330:13
#024350:005300530053005300530053005300530053005300530053
#024320:005353535353535353535353
#025330:23
#025361:13
#0253b1:00230000
#025370:00130000
#025320:0023
#025361:0013
#0253b1:00000023
#025370:00000013
#026320:23
#0273b0:13
#027360:00230000
#027321:00130000
#027371:0023
#0273b0:0013
#027360:00000023
#027321:00000013
#028371:23
#029351:13
#0293b1:00230000
#029380:00130000
#029350:0000005300000000
#029320:0023
#029351:0013
#0293b1:00000023
#030381:13
#030321:00230000
#030350:00130000
#030380:0000005300000000
#0303b0:0023
#030381:0013
#030321:00000023
#0313b1:13230000
#031361:0053000000000000
#031320:00132300
#031370:0000005300000000
#034360:13
#0343b0:00230000
#034371:00130000
#034321:0023
#035321:13230000
#035371:0053000000000000
#035360:13230000
#0353b0:0053000000000000
#0353b0:0000001300002300
#035360:00000000000000000053000000000000
#035371:0000001300002300
#035321:00000000000000000053000000000000
#037371:00130000
#037321:0023
#037361:00000013
#0383b1:23
#038370:13
#038320:00230000
#038361:00130000
#0383b1:0023
#0393b1:13230000
#039361:0053000000000000
#039370:13230000
#039320:0053000000000000
#039360:0000001300002300
#0393b0:00000000000000000053000000000000
#039321:0000001300002300
#039371:00000000000000000053000000000000
#040381:0000000000130000
#040321:0000000000000023
#0403b0:0000000000000013
#041350:0023000000000000
#042320:13
#042360:0033000000000000
#042340:00230000
#0423b1:00130000
#042371:0000003300000000
#042391:0023
#042320:0013
#042360:0000000000330000
#042340:00000023
#0423b1:00000013
#042371:0000000000000033
#043391:23
#043340:13
#043320:0033000000000000
#043360:00230000
#043391:00130000
#0433b1:0000003300000000
#043371:0023
#043340:0013
#043320:0000000000330000
#043360:00000023
#043391:00000013
#0433b1:0000000000000033
#044371:23
#044320:13
#044360:0033000000000000
#044340:00230000
#0443b1:00130000
#044371:0000003300000000
#044391:0023
#044320:0013
#044360:0000000000330000
#044340:00000023
#0443b1:00000013
#044371:0000000000000033
#045391:23
#045340:13
#045320:0033000000000000
#045360:00230000
#045391:00130000
#0453b1:0000003300000000
#045371:0023
#045340:0013
#045320:0000000000330000
#045360:00000023
#045391:00000013
#0453b1:0000000000000033
#046371:23
#0543b1:13003333
#054351:00330000
#055321:53
#0553b1:00230000
#055380:00130033
#055320:0033
#056320:23
#056351:1333
#0563b1:00330033
#057351:23
#064391:00000015
#065381:22
#064320:00000015
#065360:22
#0663b0:13230000
#066380:0053000000000000
#066321:1300330033332300
#066351:0000005300000000
#066380:00000013
#0663b0:0000000000000053
#067380:33333323
#0673b0:0000005300000000
#067351:13230000
#067321:0053000000000000
#067321:0000000013003333
#067351:0000000000530000
#068321:23
#068380:13332300
#0683b0:0053000000000000
#068321:00133333
#068351:0000005300530000
#069321:23
#0683b0:00000013
#068380:0000000000000053
#0693b0:3333230000000000
#069321:0000133353002300
#069351:0000000000530000
#0693b0:00001333
#069380:0000000000000053
#0703b0:33230000
#070351:13332300
#070321:0053005300000000
#070380:0000000013332300
#070321:0000000000001333
#071321:3333230000000000
#0713b0:0000133333002300
#071380:0000000000530000
#071321:00001333
#071351:0000000000000053
#072321:33230000
#072380:13332300
#0723b0:0053005300000000
#072351:0000000013332300
#0723b0:0000000000001333
#0733b0:3333230000000000
#073321:0000133333002300
#073351:0000000000530000
#0733b0:00001333
#073380:0000000000000053
#0743b0:23
#074381:13
#074361:00330000
#074351:0000003300000000
#074341:0033
#074331:0000000000330000
#074321:0000000000003333
#075321:23
#075350:13
#075370:00330000
#075380:0000003300000000
#075390:0033
#0753a0:0000000000330000
#0753b0:0000000000003333
#0763b0:23
#076381:13
#076361:0033000000000000
#076341:00330000
#076331:0000003300000000
#076321:0023
#076350:0013
#076370:0000000000330000
#076390:00000033
#0763a0:0000000000000033
#0773b0:23
#083380:13
#083370:003300000000000000000000000000000000000000000000
#083360:003300000000000000000000
#083350:0033000000000000
#083340:003300000000
#083330:000000000033000000000000000000000000000000000000
#083320:00230000
#0833b1:00130000
#0833a1:000000000000003300000000000000000000000000000000
#083391:003300
#083381:0000003300000000
#083371:000000000033000000000000
#083361:000000000000000000000033000000000000000000000000
#083351:0023
#085351:13
#085361:003300000000000000000000000000000000000000000000
#085371:003300000000000000000000
#085381:0033000000000000
#085391:003300000000
#0853a1:000000000033000000000000000000000000000000000000
#0853b1:00230000
#085320:00130000
#085330:000000000000003300000000000000000000000000000000
#085340:003300
#085350:0000003300000000
#085360:000000000033000000000000
#085370:000000000000000000000033000000000000000000000000
#085380:0023
#087320:00001c2c
#089320:15353535353535352500000000000000
#089330:0035003500350035003500350035003500000000000000000000000000000000
#089391:15353535353535352500000000000000
#089381:0035003500350035003500350035003500000000000000000000000000000000
#100321:13230000
#100350:00130000
#1003b0:0023
#1013b0:13
#101360:00230000
#1013b0:0000001300002300
#101340:00000000000000000053000000000000
#1033b0:00130000
#103350:0023
#103320:00000013
#104380:23
#1043b1:13230000
#104380:00130000
#104320:0023
#105320:13
#105370:00230000
#105320:0000001300002300
#105390:00000000000000000053000000000000
#106350:0000000000130000
#1063b0:0000000000000023
#106321:0000000000000013
#107381:0023000000000000
#120321:13003333
#120381:00330000
#1213b1:53
#121321:00230000
#121350:00130033
#1213b0:0033
#1223b0:23
#122381:1333
#122321:00330033
#123381:23
#130381:16
#1303a1:00340000
#1303b1:0000003300000000
#1303c1:0000000032522200
#130320:1600343332522200
#1313b0:00001323
#131380:000000000000000000000000003300000033000000000000
#131360:000000000000003333000000
#131350:0000000000330000
#131321:00000013
#131351:000000000000000000000000000000000000003300000033
#131371:000000000000000000003333
#131381:0000000000000033
#132321:23
#140321:13
#1403b1:0053
#141321:33
#141391:0000003300000000
#142321:33
#142371:0000003300000000
#143351:33
#143341:00330000
#143331:0033
#143321:00000033
#144321:33333333
#145321:26
