This file was generated by Ched 2.6.4.0.
#TITLE ""
#ARTIST ""
#DESIGNER ""
#DIFFICULTY 0
#PLAYLEVEL
#SONGID ""
#WAVE ""
#WAVEOFFSET 0
#JACKET ""
#REQUEST "ticks_per_beat 480"
#00002: 4
#BPM01: 257
#00008: 01
#TIL00: ""
#HISPEED 00
#MEASUREHS 00
#00119:13
#00214:13
#00319:13
#00314:0013
#00419:13
#00414:0013
#0051a:14
#00612:14
#00718:14
#00714:0014
#00818:14
#00814:0014
#0091a:1414
#00910:41
#01012:1414
#01118:1414
#01214:1414
#0131a:1414
#01412:1414
#0151a:14
#01516:0014
#01612:14
#0171a:14
#01714:0014
#0181a:14
#01814:0014
#01918:14
#01912:0014
#02018:14
#02012:0014
#0231a:14
#02312:0014
#02418:14
#02414:0014
#02518:1414
#02514:00140000
#02510:41
#03318:14
#03314:0014
#03418:0014
#03414:00000014
#03412:00140000
#0341a:24
#0421a:24141400
#04210:41
#04314:14141400
#04418:14141400
#04512:14141400
#04618:24141400
#04714:14141400
#0481a:14141400
#04912:14141400
#05018:1414
#05014:00140000
#05114:1414
#05118:00140000
#0521a:1414
#05212:00140000
#05312:1414
#0531a:00140000
#05814:00140000
#0581a:2414
#05914:1414
#0591a:00140000
#06018:1414
#06012:00140000
#06112:1414
#06118:00140000
#06214:00140000
#06218:0014
#0621a:24
#06312:14
#06318:00140000
#06314:0014
#06418:14
#06414:00140000
#0641a:0014
#06514:14
#06518:00140000
#06512:0014
#08218:0014
#08212:0014
#0841a:1414
#08414:1414
#08318:1414
#08314:00140000
#08514:1414
#08518:00140000
#08618:1414
#08612:00140014
#0861f:11
#0871a:1414
#08714:00140014
#09818:14
#09814:0014
#0991a:14
#09912:0014
#10819:00140000
#10818:0014
#1081a:24
#11113:00140000
#11112:0014
#11114:24
#11019:00140000
#1101a:0014
#11018:24
#10913:00140000
#10914:0014
#10912:24
#1121a:00140000
#11218:2414
#11312:00140000
#11314:2414
#11418:00140000
#1141a:2414
#11514:00140000
#11512:2414
#11614:00140000
#1161a:1414
#11718:00140000
#11712:1414
#11815:00140000
#1181a:1414
#11917:00140000
#11912:1414
#12412:00140000
#12416:0014
#12418:24
#12514:14
#1251a:00140000
#12516:0014
#1261a:14
#12612:00140000
#12616:0014
#12712:14
#1271a:00140000
#12716:0014
#12817:00140000
#12814:0014
#1281a:24
#12912:14
#12915:00140000
#12918:0014
#1301a:14
#13016:00140000
#13012:0014
#13112:14
#13116:00140000
#1311a:0014
#0401a:14140000
#04012:00001414
#04118:1414
#04114:00140014
#03912:00000014
#03914:00140000
#03918:14
#0391a:0014
#10018:0014
#10012:00000014
#10014:00140000
#1001a:24
#1001f:21
#10114:00140000
#1011a:14
#10118:0014
#10112:00000014
#1021a:14
#10214:0014
#10218:00140000
#10212:00000014
#10210:41
#13212:00140000
#13218:00001414
#13214:0000000000140000
#1321a:24
#1331a:00140000
#13314:00001414
#13318:0000000000140000
#13312:24
#13414:00140000
#13418:00001414
#13412:0000000000140000
#1341a:24
#13518:00140000
#13514:00001414
#1351a:0000000000140000
#13512:24
#13612:00140000
#1361a:0014
#13614:0000000000140000
#13618:24000014
#1371a:00140000
#13712:0014
#13718:0000000000140000
#13714:24000014
#02614:1414
#02618:00140000
#0271a:1414
#02714:00140000
#02812:1414
#02818:00140000
#0311a:1414
#03112:00140000
#03212:1414
#0321a:00140000
#0351a:14
#03512:00140000
#03518:0014
#03514:00000014
#03618:14140000
#03614:00001414
#0371a:1414
#03712:00140014
#0381a:0014
#03812:00000014
#03814:00140000
#03818:24
#10318:1414
#10314:00140014
#1041a:0014
#10414:00000014
#10412:00140000
#10418:24
#10512:00140000
#10518:14
#1051a:0014
#10514:00000014
#10618:14
#10612:0014
#1061a:00140000
#10614:00000014
#1071a:1414
#10712:00140014
#0781a:24
#07814:24
#0741a:24
#07414:24
#07512:24
#07518:24
#0761a:24
#07614:24
#07612:0024
#07618:0024
#0771a:24
#07714:24
#07712:0024
#07718:0024
#12010:41
#06610:41
#08252:14
#08258:14
#08454:14
#0845a:14
#06552:0014
#1315a:0014
#0213a0:1424
#022340:1424
#029380:1424
#030320:1424
#0543a0:14
#054390:00340000
#054380:0034
#054370:00000034
#055370:0024
#056320:14
#056330:00340000
#056340:0034
#056350:00000034
#057350:34342400
#0663a0:14000034
#066380:00343400
#0673a0:34000024
#067380:00343400
#068320:14000034
#068340:00343400
#069320:34000024
#069340:00343400
#070380:14000034
#0703a0:00343400
#071380:34000024
#0713a0:00343400
#072340:14000034
#072320:00343400
#073340:34000024
#073320:00343400
#0783a0:14
#080380:34
#0813a0:34
#082380:24
#078341:14
#080321:34
#081341:34
#082321:24
#088381:1424
#089341:1424
#0903a1:14
#090371:0034
#0913a1:34
#091371:0034
#0923a1:34
#092371:0034
#0933a1:34
#093371:0024
#094321:14
#094351:0034
#095321:34
#095351:0034
#096321:34
#096351:0034
#097321:34
#097351:0024
#1203a1:1434
#120381:00340034
#1213a1:0024
#122321:1434
#122341:00340034
#123321:34
#123331:00340000
#123341:0024
#1383a1:1434003434003434
#1393a1:0034240000000000
#140321:14
#141351:34
#142321:34
#145361:00000024
